<?xml version="1.0" standalone="no"?>
<!DOCTYPE svg PUBLIC "-//W3C//DTD SVG 1.1//EN" "http://www.w3.org/Graphics/SVG/1.1/DTD/svg11.dtd" >
<svg xmlns="http://www.w3.org/2000/svg">
<metadata>
This is a custom SVG webfont generated by Font Squirrel.
Designer    : Ray Larabie
Foundry     : Ray Larabie
Foundry URL : httpwwwlarabiefontscom
</metadata>
<defs>
<font id="webfontrKyDm8XO" horiz-adv-x="415" >
<font-face units-per-em="1000" ascent="800" descent="-200" />
<missing-glyph horiz-adv-x="200" />
<glyph unicode=" "  horiz-adv-x="200" />
<glyph unicode="&#x09;" horiz-adv-x="200" />
<glyph unicode="&#xa0;" horiz-adv-x="200" />
<glyph unicode="!" horiz-adv-x="163" d="M43 710q22 -3 45 -3t46 3q-7 -57 -12 -124t-9 -138.5t-7 -143.5l-6 -141h-17h-12q-6 0 -13 -2v270q0 81 -4 148.5t-11 130.5zM76 77q17 0 28.5 -12.5t11.5 -29.5t-11.5 -28.5t-28.5 -11.5q-18 0 -29.5 11.5t-11.5 28.5t11.5 29.5t29.5 12.5z" />
<glyph unicode="&#x22;" horiz-adv-x="210" d="M129 717q6 -1 11 -1h12q21 0 42 3q-3 -42 -9 -86t-6 -86q-23 3 -47 3q2 12 2 22v19v31l-2 28q0 14 -1 30t-2 37zM13 719q6 -1 12 -1h13q22 0 46 3q-6 -33 -6 -73q0 -22 1 -44.5t3 -47.5q-12 0 -23.5 -1t-23.5 -3q-3 42 -7 85t-15 82z" />
<glyph unicode="#" horiz-adv-x="472" d="M289 651q9 -1 18 -1.5t19 -0.5q8 0 15 0.5t15 1.5q-4 -52 -9 -175q43 -3 68 -3q8 0 12.5 0.5t9.5 0.5q-4 -33 -6 -68q-11 4 -32.5 7.5t-54.5 5.5l-4 -108q35 0 58 1.5t36 3.5q-1 -7 -1.5 -13.5t-0.5 -14.5q0 -9 0.5 -19t1.5 -21q-24 4 -96 6q2 -66 4 -107.5t6 -62.5 q-5 0 -9 0.5t-9 0.5q-12 0 -24.5 -1t-24.5 -3q1 11 1.5 26.5t0.5 36.5v93v8q0 4 -1 8l-83 -4q2 -33 6 -64.5t12 -61.5q-17 0 -34.5 -0.5t-34.5 -4.5q-1 58 -6 129q-38 -2 -63 -4.5t-37 -6.5q0 8 0.5 15t0.5 15q0 18 -3 39q24 -3 59 -3h21q10 0 21 1l-1 106q-36 -2 -61.5 -4 t-42.5 -6v27v20q0 10 -2 21q8 -1 18 -1h25h29q15 0 35 1l-6 176q8 -1 17 -1h17h17q8 0 16 1q-2 -22 -3.5 -64.5t-1.5 -108.5l93 6q1 32 1.5 57.5t0.5 47.5q0 44 -3 70zM197 413v-107l86 3l6 110z" />
<glyph unicode="$" horiz-adv-x="425" d="M163 719q17 0 33.5 2t33.5 6q-1 -11 -1.5 -24t-0.5 -28q0 -7 0.5 -13.5t0.5 -12.5q27 -3 48 -15.5t34.5 -31.5t20.5 -42.5t7 -47.5q0 -20 -4 -35q-17 5 -33.5 7.5t-33.5 3.5q12 16 12 40q0 11 -5 23t-14 22t-21.5 16.5t-27.5 6.5q-20 0 -36.5 -11t-28 -29t-17.5 -40 t-6 -43q0 -18 2 -31t13.5 -24.5t34.5 -22.5t65 -24q34 -11 57 -26.5t36 -34.5t18.5 -39.5t5.5 -41.5q0 -28 -8.5 -55.5t-24 -50.5t-38.5 -39t-52 -21q-1 -9 -1 -17v-17q0 -16 1 -28.5t4 -22.5h-33q-17 0 -34 -1q4 30 6 81q-30 1 -51.5 17.5t-35 40.5t-19.5 53t-6 55v10 q17 -4 35 -5t35 -1q-10 -23 -10 -45q0 -30 19.5 -51.5t52.5 -21.5q21 0 40.5 10.5t33.5 27.5t22.5 38t8.5 43q0 31 -17 53t-67 36q-44 12 -72.5 25.5t-45.5 31t-24 40.5t-7 55q0 27 6.5 55t19.5 52t32 42t45 26q0 47 -8 74z" />
<glyph unicode="%" horiz-adv-x="642" d="M460 54q21 0 36.5 8t25.5 20.5t15 29t5 34.5q0 39 -17 63.5t-44 24.5q-19 0 -36 -10t-30 -25.5t-20.5 -34t-7.5 -34.5q0 -30 19 -53t54 -23zM475 284q32 0 56 -12.5t39.5 -32t23 -45t7.5 -50.5q0 -31 -11.5 -58t-31.5 -47t-46 -31.5t-56 -11.5q-32 0 -55.5 11.5t-39.5 30 t-23.5 41t-7.5 44.5q0 29 11 58t30.5 52t46 37t57.5 14zM179 488q22 0 37.5 8t25.5 21t14.5 29.5t4.5 34.5q0 40 -17.5 63.5t-43.5 23.5q-19 0 -36 -10t-29.5 -25t-20 -33.5t-7.5 -36.5q0 -28 18.5 -51.5t53.5 -23.5zM523 733q10 -11 22.5 -19.5t27.5 -15.5q-12 -12 -36 -46 l-55 -82l-69 -108l-75 -119l-74 -119l-66 -108l-52 -86l-30 -49q-15 8 -30 14t-32 12q13 12 38 46l56 83l71 108l77 122l75 121l68 110l53 86zM177 429q-25 0 -48 9.5t-41 26.5t-28.5 39.5t-10.5 49.5q0 30 11 59.5t30.5 53t46 38t56.5 14.5q33 0 57 -12.5t39.5 -32.5 t23 -45t7.5 -49q0 -32 -11.5 -59.5t-31 -47.5t-45.5 -32t-55 -12z" />
<glyph unicode="&#x26;" horiz-adv-x="529" d="M218 467l40 38q21 19 37.5 38t27 38t10.5 39q0 29 -17.5 42t-41.5 13q-15 0 -29 -6t-25.5 -18.5t-18.5 -31.5t-7 -45q0 -23 5.5 -49.5t18.5 -57.5zM200 384l-40 -68q-17 -29 -28.5 -55t-17 -50.5t-5.5 -51.5q0 -20 4 -41t12 -38t21.5 -28t33.5 -11q42 0 83.5 30.5 t73.5 75.5l-39 61l-34 54q-17 27 -32.5 56.5t-31.5 65.5zM443 355q25 -25 59 -39q-12 -23 -36 -64l-61 -105q30 -45 54.5 -73t41.5 -44q-30 -24 -54 -52l-33 55l-43 74q-35 -58 -85.5 -93.5t-113.5 -35.5q-31 0 -54 15t-38 38.5t-22.5 53t-7.5 58.5q0 78 33 152t93 137 q-9 20 -15.5 37t-10.5 34.5t-6 37t-2 43.5q0 30 11 56t30.5 45.5t46.5 30.5t60 11q19 0 37 -5.5t32 -17.5t22.5 -31t8.5 -46q0 -31 -14.5 -58.5t-37 -53t-49 -49.5t-49.5 -47q15 -34 29.5 -63t30 -56t33 -53.5t38.5 -55.5q30 58 47.5 99t24.5 65z" />
<glyph unicode="'" horiz-adv-x="111" d="M18 709q5 -1 8 -1h9q12 0 23 1.5t22 3.5q0 -17 -1.5 -34t-3 -37.5t-2.5 -45.5t-1 -58h-16q-7 0 -15 -1l-10 87q-5 43 -13 85z" />
<glyph unicode="(" horiz-adv-x="361" d="M272 787q14 -9 28.5 -15.5t30.5 -11.5q-79 -118 -121.5 -256.5t-42.5 -287.5q0 -103 26.5 -199t89.5 -187q-29 -8 -60 -29q-58 99 -85.5 204.5t-27.5 219.5q0 76 12 150t33.5 145t51.5 138t65 129z" />
<glyph unicode=")" horiz-adv-x="325" d="M29 754q33 12 60 32q72 -109 108 -229.5t36 -256.5q0 -125 -29.5 -240.5t-81.5 -223.5q-27 15 -63 26q57 100 87.5 212.5t30.5 229.5q0 121 -35 235.5t-113 214.5z" />
<glyph unicode="*" horiz-adv-x="429" d="M370 641q2 -16 7 -33t13 -34q-36 -8 -135 -51q32 -38 58.5 -66t48.5 -49q-30 -16 -53 -40q-14 27 -37 58.5t-55 66.5q-75 -78 -94 -129q-29 32 -58 48q23 11 52 39t62 73q-52 23 -90 35t-63 15q7 13 12.5 26t10.5 33q23 -19 59.5 -36.5t87.5 -32.5q0 97 -9 139 q18 -7 41 -7q18 0 33 4q-11 -38 -19 -136q48 24 79.5 43.5t48.5 33.5z" />
<glyph unicode="+" horiz-adv-x="450" d="M257 147q-17 3 -35 3h-14q-7 0 -15 -1q12 43 12 109v70h-45q-48 0 -82 -2.5t-54 -4.5q2 11 3.5 22t1.5 23q0 3 -0.5 6.5t-0.5 7.5q17 -5 43.5 -7.5t68.5 -2.5h65v43q0 48 -2.5 82t-4.5 54q18 -6 39 -6q5 0 10 0.5t10 1.5q-5 -17 -7.5 -43.5t-2.5 -68.5v-63h53 q82 0 126 10q-2 -10 -3 -19.5t-1 -18.5q0 -7 0.5 -13.5t1.5 -12.5q-44 12 -109 12h-68v-55q0 -82 10 -126z" />
<glyph unicode="," horiz-adv-x="164" d="M57 -61q12 8 21.5 26t13.5 32q-8 -5 -19 -5q-21 0 -30.5 14.5t-9.5 37.5q0 29 16 43t38 14q26 0 37 -16.5t11 -39.5q0 -27 -12.5 -64t-40.5 -66z" />
<glyph unicode="-" horiz-adv-x="346" d="M288 361q-2 -15 -3 -31.5t-1 -36.5q-59 9 -115 9q-27 0 -56 -1.5t-58 -3.5q3 31 3 69q29 -5 57.5 -7t57.5 -2q28 0 57 1t58 3z" />
<glyph unicode="." horiz-adv-x="184" d="M90 -15q-26 0 -44 18t-18 46q0 30 22.5 46t47.5 16q26 0 41.5 -17.5t15.5 -47.5q0 -24 -16 -42.5t-49 -18.5z" />
<glyph unicode="/" horiz-adv-x="364" d="M285 738q16 -7 33 -12t34 -7q-10 -12 -26 -47.5t-36 -85.5l-42 -112l-45 -126l-43 -126l-38 -114l-28 -88q-12 -38 -16 -53q-17 8 -32.5 12.5t-32.5 7.5q6 13 20 49l33 88l40 112l46 125l45 125l40 113l31 88z" />
<glyph unicode="0" horiz-adv-x="441" d="M87 353q0 -97 13.5 -159t34 -97t43.5 -48.5t42 -13.5q17 0 40 12t43.5 46.5t35 96.5t14.5 163q0 76 -7.5 129.5t-19 88.5t-26.5 55t-29.5 29.5t-28 12t-22.5 2.5q-18 0 -41 -8.5t-43 -41t-34 -95.5t-15 -172zM220 726q44 0 79.5 -18.5t61 -62t39 -115t13.5 -177.5 q0 -86 -8.5 -147t-22.5 -102.5t-33 -66.5t-40.5 -38t-44.5 -17t-44 -4q-33 0 -67 15.5t-61.5 54.5t-45 105.5t-17.5 168.5q0 93 8 159.5t22.5 111.5t33 71.5t40 40t44 17.5t43.5 4z" />
<glyph unicode="1" horiz-adv-x="246" d="M42 647q-1 15 -1.5 30t-3.5 32q7 -1 14 -1h15q38 0 88 6q-4 -109 -7.5 -235t-3.5 -269q0 -54 1 -93.5t3 -65.5q22 0 40.5 1t34.5 3q-1 -5 -1 -9v-8q0 -22 4 -39q-5 1 -11 1h-14h-27q-21 0 -44 -0.5t-44 -1.5t-39 -2.5t-30 -3.5v28q0 13 -3 29q12 -3 33 -3q9 0 20 0.5 t23 1.5q1 17 2 63.5t2 107t2 129t1.5 130t1 109t0.5 67.5q-30 -2 -56 -7z" />
<glyph unicode="2" horiz-adv-x="397" d="M113 501q-6 1 -12 1h-11q-13 0 -25.5 -1.5t-24.5 -3.5q0 70 14.5 114.5t37.5 69.5t52 34t58 9q35 0 61.5 -13t44 -35t26.5 -52.5t9 -64.5q0 -75 -37 -141t-98 -112q-30 -23 -52.5 -43.5t-38 -47.5t-23 -64t-7.5 -92q32 -3 64.5 -5.5t64.5 -2.5q35 0 71.5 3.5t74.5 11.5 q-1 -6 -1.5 -12.5t-0.5 -12.5q0 -26 6 -51q-32 6 -80.5 8t-114.5 2q-46 0 -79.5 -2t-57.5 -5q-1 18 -1.5 34t-0.5 32q0 71 12 118t32 79t46 54t55 44q33 25 54 51t33 52.5t16.5 54t4.5 56.5q0 46 -20.5 75.5t-63.5 29.5q-18 0 -35 -6t-30.5 -19.5t-21.5 -34.5t-8 -52t7 -60z " />
<glyph unicode="3" horiz-adv-x="351" d="M104 595q-15 11 -29 18t-30 12q17 42 51 68.5t89 26.5q33 0 58 -13t42 -35.5t25.5 -53.5t8.5 -66q0 -23 -4.5 -48.5t-16 -49t-30 -43.5t-46.5 -32q36 -9 56 -28.5t30 -44.5t12 -52.5t2 -52.5q0 -42 -9 -80.5t-27.5 -67.5t-48 -46.5t-71.5 -17.5q-21 0 -46 6t-46.5 23 t-36.5 46.5t-16 76.5q42 0 69 7q-3 -17 -3 -32q0 -35 20 -58t59 -23q20 0 38.5 8.5t32.5 27.5t22.5 49.5t8.5 74.5q0 31 -7.5 59.5t-22.5 49.5t-38 33.5t-53 12.5q-3 0 -6.5 -0.5t-7.5 -0.5q2 13 3.5 27.5t1.5 32.5q34 0 58 12.5t38.5 33t21 47t6.5 55.5q0 108 -79 108 q-14 0 -26.5 -2.5t-23.5 -10t-18.5 -21.5t-10.5 -36z" />
<glyph unicode="4" horiz-adv-x="406" d="M257 708q8 -1 15 -1h16q20 0 43 3q-11 -97 -14 -197t-4 -202q23 0 42.5 1.5t34.5 3.5q-1 -6 -1.5 -12t-0.5 -11q0 -24 6 -43q-14 2 -32 3t-49 1q-1 -29 -1.5 -57t-0.5 -57q0 -80 3 -159q-7 1 -13.5 1.5t-14.5 0.5q-7 0 -14 -0.5t-15 -1.5q2 69 3 136t1 136 q-63 -3 -118.5 -3.5t-112.5 -7.5q-5 19 -13 35.5t-18 31.5q27 15 50.5 39t40.5 53.5t27 61.5t10 63q0 23 -6.5 45t-22.5 42q17 3 33 9.5t32 15.5q20 -51 20 -100q0 -30 -5.5 -61.5t-18.5 -62t-34 -58.5t-52 -50q56 0 99 1.5t91 1.5q2 51 3.5 102.5t1.5 102.5t-2.5 98.5 t-8.5 95.5z" />
<glyph unicode="5" horiz-adv-x="431" d="M368 714q-1 -7 -1.5 -13.5t-0.5 -13.5q0 -18 5 -43q-83 9 -163 9q-20 0 -39.5 -0.5t-39.5 -1.5l-44 -183q15 18 46.5 29.5t79.5 11.5q54 0 91 -23.5t60.5 -60t34 -81t10.5 -86.5q0 -47 -16 -95t-45 -87t-70 -63.5t-90 -24.5q-44 0 -73.5 22t-48.5 55.5t-27 72.5t-8 72 q16 -3 34 -3q17 0 35 3q-6 -24 -6 -47q0 -63 29.5 -89t74.5 -26q35 0 64 20.5t50 52t32.5 70t11.5 74.5q0 54 -15.5 90.5t-39 59t-51.5 32.5t-53 10q-38 0 -71.5 -16.5t-53.5 -49.5q-12 7 -25 13t-29 9q21 70 38.5 140.5t29.5 156.5q72 -3 141 -3q35 0 70.5 2t72.5 5z" />
<glyph unicode="6" horiz-adv-x="443" d="M364 221q0 34 -8.5 64.5t-26 53t-45 35.5t-65.5 13q-45 0 -80 -18t-54 -60q0 -36 5.5 -81t21 -84.5t44.5 -67.5t76 -31q32 0 57 14.5t41.5 38.5t25 56t8.5 67zM377 579q-11 1 -21 1h-24h-10q-6 0 -11 -2q3 19 3 33q0 32 -14 45t-42 13q-46 0 -77.5 -22.5t-52 -61.5 t-32 -92.5t-17.5 -116.5q20 31 58.5 49.5t86.5 18.5t84.5 -16.5t61 -45t37 -68.5t12.5 -86q0 -50 -11 -95t-34.5 -78.5t-60 -53t-86.5 -19.5q-54 0 -92 29t-63 78t-36.5 114t-11.5 137q0 96 18 168.5t48.5 122t71 74.5t84.5 25q22 0 45 -5t41.5 -21t31 -46t13.5 -79z" />
<glyph unicode="7" horiz-adv-x="356" d="M348 684q-42 -61 -74.5 -129.5t-57 -137.5t-41.5 -135.5t-28.5 -123t-18 -100.5t-9.5 -68q-17 5 -35 7l-36 4q12 38 22.5 77t18.5 84q4 24 15 63t25.5 85.5t32.5 97.5l36 97q18 47 36 86.5t33 65.5q-35 -4 -66.5 -5t-62.5 -1t-61 -0.5t-60 -3.5q2 11 3.5 21t1.5 20 q0 7 -0.5 13t-1.5 13q35 -5 68.5 -6.5t68.5 -1.5q36 0 75 2t87 5z" />
<glyph unicode="8" horiz-adv-x="405" d="M272 356q34 -14 55 -34t33 -43.5t16.5 -47.5t4.5 -46q0 -40 -11 -76.5t-34.5 -65t-61 -45.5t-90.5 -17q-39 0 -69 14t-50.5 38t-30.5 55t-10 66q0 30 5 60.5t17.5 58t35 50t57.5 36.5q-21 12 -36.5 31.5t-25 43t-14.5 48t-5 47.5q0 32 7.5 66.5t25 63.5t46.5 47.5 t71 18.5q40 0 68 -16t46 -43t26.5 -62.5t8.5 -75.5q0 -48 -18.5 -94t-66.5 -78zM204 325q-33 0 -56.5 -16t-38.5 -40.5t-22 -54t-7 -55.5q0 -25 6.5 -47.5t20.5 -39.5t36 -27t54 -10q58 0 93 40.5t35 109.5q0 25 -8.5 50t-24.5 45t-38 32.5t-50 12.5zM209 380 q24 0 41.5 13.5t28.5 35.5t16 49.5t5 56.5q0 30 -6.5 55t-18.5 44t-29.5 29.5t-39.5 10.5q-26 0 -44 -12t-29 -32t-16.5 -45.5t-5.5 -51.5q0 -27 5.5 -54.5t17.5 -49.5t30.5 -35.5t44.5 -13.5z" />
<glyph unicode="9" horiz-adv-x="442" d="M360 399q0 36 -6.5 81t-24 85.5t-48 68t-79.5 27.5q-29 0 -51.5 -14.5t-38.5 -38.5t-24 -55t-8 -64q0 -81 37 -125t104 -44q45 0 81 18.5t58 60.5zM66 129q5 -2 16 -2q13 0 26 0.5t25 2.5q-3 -20 -3 -34q0 -31 13.5 -44.5t41.5 -13.5q48 0 79 22.5t51 62t31 93t19 115.5 q-21 -31 -60 -49.5t-87 -18.5q-49 0 -85.5 16.5t-60.5 46t-36 70t-12 88.5q0 49 12 93t36 77t60 52t84 19q55 0 93.5 -29.5t62.5 -79t35 -113t11 -130.5q0 -95 -17 -169t-47 -124.5t-70 -76.5t-86 -26q-24 0 -46.5 5t-40.5 21.5t-30 46t-15 79.5z" />
<glyph unicode=":" horiz-adv-x="233" d="M67 174q0 29 14 38.5t34 9.5q26 0 36.5 -12t10.5 -34q0 -21 -16 -30t-38 -9q-14 0 -27.5 7t-13.5 30zM131 504q17 0 28.5 -15t11.5 -33q0 -20 -18 -35t-40 -15q-23 0 -33.5 13t-10.5 29q0 15 6 26t15.5 17.5t20.5 9.5t20 3z" />
<glyph unicode=";" horiz-adv-x="234" d="M122 293q-25 0 -42.5 17.5t-17.5 43.5q0 25 16.5 43.5t39.5 18.5q26 0 41 -18t15 -50q0 -26 -15.5 -40.5t-36.5 -14.5zM91 -61q12 8 21.5 26t13.5 32q-8 -5 -19 -5q-21 0 -30.5 14.5t-9.5 37.5q0 29 16 43t38 14q26 0 37 -16.5t11 -39.5q0 -27 -12.5 -64t-40.5 -66z" />
<glyph unicode="&#x3c;" horiz-adv-x="420" d="M382 510q-17 -3 -52 -20t-78 -42l-90 -52l-84 -51q131 -75 209 -111t99 -41q-20 -23 -32 -56q-26 23 -67 48.5t-86.5 49.5t-90.5 45l-79 36l2 60q45 22 99 52l100 59l82 51q34 23 39 29q4 -17 11.5 -30.5t17.5 -26.5z" />
<glyph unicode="=" horiz-adv-x="451" d="M161 236q-48 -2 -82 -6t-54 -7l2 59q25 -6 74 -6q67 0 125 2.5t101.5 6.5t69 7.5t28.5 5.5v-64q-13 3 -30 4.5t-55 1.5q-29 0 -72 -1t-107 -3zM160 418q-48 0 -82 -2.5t-54 -4.5l4 59q17 -5 43.5 -7.5t68.5 -2.5q79 0 129.5 0.5t81.5 1.5t47.5 3t28.5 5l-3 -64 q-11 3 -25.5 5t-42.5 3.5t-74.5 2.5t-121.5 1z" />
<glyph unicode="&#x3e;" horiz-adv-x="420" d="M35 188q16 3 51.5 20t79.5 42l89 52l84 51q-131 75 -209 111t-99 41q20 23 32 56q26 -23 67 -48.5t86.5 -49.5t90.5 -45l79 -36l-2 -60q-30 -15 -64 -34l-70 -39l-66 -39l-58 -36l-42 -28q-17 -11 -20 -15q-4 17 -11.5 30.5t-17.5 26.5z" />
<glyph unicode="?" horiz-adv-x="373" d="M231 30q0 -25 -17 -43.5t-49 -18.5q-22 0 -42 15.5t-20 48.5q0 28 19.5 44.5t42.5 16.5q29 0 47.5 -15.5t18.5 -47.5zM29 533q0 46 13 81t35.5 58t53.5 35t68 12q63 0 101.5 -36t38.5 -108q0 -43 -11.5 -75t-29 -58.5t-37.5 -50.5t-37.5 -49t-29 -55t-11.5 -68 q0 -29 11 -56l-68 -12q-1 8 -1 17v16q0 51 11.5 90.5t29 71.5t37.5 59t37.5 53t29 53.5t11.5 61.5q0 14 -5 30.5t-16 31t-28.5 24t-41.5 9.5q-49 0 -71.5 -22t-22.5 -76q0 -20 3 -45z" />
<glyph unicode="@" horiz-adv-x="592" d="M362 280q1 35 2 62t3 47q-12 15 -26.5 21t-31.5 6q-27 0 -39.5 -20t-12.5 -46q0 -36 19 -56t52 -20q8 0 17 2t17 4zM496 100q10 -32 35 -62q-87 -48 -181 -48q-74 0 -134 22.5t-102.5 66.5t-66 108.5t-23.5 148.5q0 75 18.5 145t55.5 124.5t91.5 87t126.5 32.5 q57 0 98 -15t68.5 -40t44 -56t25 -63.5t11 -62.5t2.5 -53q0 -100 -27.5 -155.5t-93.5 -55.5q-28 0 -72 14q-26 -17 -58 -17q-21 0 -41.5 7.5t-36 22.5t-25.5 38t-10 53q0 24 7 47.5t21 42t35 29.5t49 11q40 0 61 -28q0 14 3 22q10 -5 22.5 -7.5t26.5 -3.5q-5 -31 -9 -78 t-4 -96q15 -5 30 -5q24 0 37.5 14.5t21 38t9.5 53.5t2 60q0 46 -10 87.5t-34 73t-62.5 49.5t-95.5 18q-56 0 -99.5 -27.5t-73.5 -74t-45.5 -107.5t-15.5 -127q0 -138 70.5 -212t197.5 -74q40 0 78.5 11t72.5 41z" />
<glyph unicode="A" d="M365 93q0 -50 36 -93q-20 0 -38.5 -1t-38.5 -5q-4 3 -7 10t-5 15t-3 16t-1 14q-29 -59 -103 -59q-44 0 -77.5 21.5t-55.5 55.5t-33 76.5t-11 84.5q0 124 49.5 187t133.5 63q30 0 58.5 -16t45.5 -43q1 13 1 25v24q0 60 -6.5 99.5t-18.5 62.5t-29.5 32.5t-39.5 9.5 t-41.5 -5t-34.5 -18.5t-23.5 -36t-8.5 -58.5q0 -8 0.5 -16t1.5 -17q-20 4 -37.5 4.5t-36.5 0.5q9 61 25.5 99.5t38.5 60.5t49.5 30.5t59.5 8.5q35 0 68.5 -15t53.5 -44q19 -29 23.5 -83.5t4.5 -139.5v-350zM307 328q-7 46 -36.5 71t-65.5 25q-32 0 -54 -16.5t-36.5 -42.5 t-21 -60t-6.5 -68q0 -28 5.5 -61t20 -61.5t39.5 -48t63 -19.5q27 0 51.5 14t40.5 46v221z" />
<glyph unicode="B" horiz-adv-x="446" d="M44 711q32 3 66.5 4t68.5 1q56 0 95 -11.5t63 -34t34.5 -55.5t10.5 -76q0 -60 -32 -99.5t-89 -61.5q34 -2 63.5 -16t51 -38.5t33.5 -57.5t12 -73q0 -45 -12 -81t-41 -62t-77 -40t-121 -14q-35 0 -70 1t-71 4q8 20 14 65t10 110.5t6 148.5t2 178q0 78 -4 127.5t-13 80.5z M176 347q-17 0 -32 -1l-29 -2q-4 -77 -6.5 -144.5t-8.5 -144.5q19 -1 37.5 -3.5t37.5 -2.5q37 0 71.5 6t61 22.5t42 45.5t15.5 75q0 73 -44.5 111t-144.5 38zM115 402q54 0 94 5.5t66 20.5t38.5 43t12.5 73q0 34 -10.5 57t-29.5 37.5t-45 20.5t-57 6q-17 0 -35 -1l-37 -2 q2 -45 3 -87t1 -85v-44q0 -21 -1 -44z" />
<glyph unicode="C" horiz-adv-x="401" d="M372 453q-15 4 -40 4q-8 0 -15 -0.5t-15 -1.5q7 21 7 55q0 72 -25.5 115t-70.5 43q-35 0 -60 -23.5t-42 -65t-25 -99t-8 -124.5q0 -38 4 -91t16.5 -101.5t37.5 -82.5t67 -34q18 0 36.5 7t33 26t24 51.5t9.5 83.5q0 13 -1 25t-3 24q25 -6 49 -6h11q5 0 10 1l-25 -119 q-11 -50 -27.5 -83.5t-42 -50t-68.5 -16.5q-39 0 -67.5 17.5t-49 47t-34 67t-21 77.5t-10.5 79t-3 72q0 36 2.5 78t10 83.5t20.5 80t34 68t51.5 47.5t72.5 18q52 0 82 -27.5t46 -69t21 -89t8 -86.5z" />
<glyph unicode="D" horiz-adv-x="417" d="M113 707q37 0 62 -3t41 -8q27 -9 58 -27.5t57.5 -58t44 -107.5t17.5 -176q0 -94 -22.5 -157t-59 -101.5t-82.5 -54.5t-94 -16q-20 0 -45 0.5t-49 1.5q1 29 1.5 57t0.5 57q0 147 -7 295t-7 298h84zM99 49q7 -2 15.5 -2.5t17.5 -0.5q38 0 76 15t68 48t49 86t19 129 q0 52 -3 90.5t-9 67t-15.5 50t-22.5 41.5q-10 14 -26 28t-36 25.5t-44.5 18.5t-51.5 7q-23 0 -50 -3q2 -148 7.5 -279.5t5.5 -261.5v-59z" />
<glyph unicode="E" horiz-adv-x="432" d="M82 429q70 -3 141 -3q54 0 107 3q1 9 1 18v18q0 53 -8.5 92t-23 64.5t-34 37.5t-41.5 12q-44 0 -71.5 -26.5t-43.5 -64t-21.5 -79t-5.5 -72.5zM390 373q-77 -3 -154 -3q-78 0 -156 3q-1 -11 -1 -21v-20q0 -61 12.5 -112.5t34.5 -89t50.5 -58.5t61.5 -21q25 0 44.5 12.5 t33.5 33t21.5 46.5t7.5 54q0 32 -8 72q11 -3 21 -4t20 -1q8 0 15 0.5t15 1.5q-2 -62 -12 -112t-30 -85t-52.5 -54.5t-78.5 -19.5q-43 0 -75 16.5t-55.5 43.5t-39 63t-24.5 75t-13 78t-4 74q0 81 7 150.5t28.5 119.5t60.5 78.5t103 28.5q25 0 49 -9t44.5 -26.5t35.5 -43.5 t21 -59q9 -51 12.5 -102.5t4.5 -108.5z" />
<glyph unicode="F" horiz-adv-x="339" d="M315 709q1 -18 4 -34t6 -30q-29 5 -58.5 6t-60.5 1q-27 0 -54.5 -0.5t-56.5 -0.5q-1 -26 -1.5 -50t-0.5 -47q0 -32 0.5 -64t2.5 -67q14 -1 32 -1.5t53 -0.5q17 0 42.5 2t50.5 6q-2 -11 -3 -23t-1 -23v-11q0 -6 1 -12q-26 4 -45 5t-36 1q-22 0 -45 -0.5t-46 -2.5 q-2 -34 -3 -85.5t-1 -121.5q0 -103 6 -158h-72q4 17 7 40.5t4.5 72t2.5 130.5t1 217q0 70 -0.5 112t-2 67.5t-4.5 40.5t-7 31h285z" />
<glyph unicode="G" horiz-adv-x="406" d="M360 453q-23 3 -43 3h-15q-7 0 -15 -1q5 17 9 37.5t4 45.5q0 57 -21.5 88t-69.5 31q-31 0 -56 -17t-42 -54.5t-26.5 -97.5t-9.5 -145q0 -54 7 -107t23 -95.5t43 -68.5t68 -26q51 0 77.5 50t26.5 131q0 15 -0.5 31.5t-1.5 36.5q-28 -1 -48 -2l-40 -2q-19 -1 -38 -2.5 t-44 -4.5q0 23 -0.5 41.5t-2.5 36.5q51 -15 95 -15q21 0 56 1.5t86 3.5q-5 -26 -6.5 -51.5t-1.5 -52.5q0 -52 -9 -98t-27.5 -80.5t-47 -54.5t-67.5 -20q-60 0 -98.5 32.5t-61 82.5t-31 109.5t-8.5 114.5q0 69 5 137t24 122t57 87.5t103 33.5q56 0 84 -26.5t40.5 -66t15 -85 t7.5 -83.5z" />
<glyph unicode="H" horiz-adv-x="410" d="M313 708q5 -2 11 -2h10h14h14h10q6 0 11 2q-6 -38 -9.5 -150t-3.5 -308q0 -97 1 -158t6 -92q-9 1 -18 1.5t-18 0.5t-18 -0.5t-18 -1.5q7 66 9 338q-26 2 -52 3t-52 1q-29 0 -57 -1t-57 -4q0 -268 6 -338q-18 3 -36 3q-19 0 -37 -3q5 32 8 104.5t3 193.5q0 332 -6 412 q8 -1 15 -1.5t15 -0.5q9 0 18 0.5t18 1.5q-3 -29 -4 -80t-1 -132v-102q49 -3 99 -3q61 0 121 3q0 45 1 83t1 76t-0.5 76.5t-3.5 77.5z" />
<glyph unicode="I" horiz-adv-x="139" d="M31 707q6 -2 12 -2h11h16h17h11q6 0 12 2q-5 -48 -7.5 -145t-2.5 -256q0 -222 12 -306q-11 1 -21 1.5t-21 0.5q-10 0 -20 -0.5t-21 -1.5q15 93 15 357q0 137 -3 221t-10 129z" />
<glyph unicode="J" horiz-adv-x="364" d="M260 707q15 -4 35 -4q11 0 22 1.5t24 3.5q-12 -72 -12 -183q0 -21 0.5 -43t1 -48.5t1 -59.5t0.5 -76q0 -51 -5.5 -105.5t-23 -99.5t-51 -74t-89.5 -29q-75 0 -110 43.5t-35 121.5q0 29 3.5 58.5t8.5 53.5q34 -11 69 -12q-10 -13 -17.5 -40.5t-7.5 -69.5q0 -45 23.5 -73.5 t61.5 -28.5q37 0 60 24t36 69t17.5 109.5t4.5 145.5q0 109 -5.5 187t-11.5 129z" />
<glyph unicode="K" horiz-adv-x="437" d="M319 721q18 -8 36.5 -12.5t38.5 -8.5l-60 -72q-25 -31 -48 -63l-50 -71l-66 -97q24 7 49 7q48 0 71.5 -32.5t23.5 -104.5q0 -14 -1 -32.5t-1.5 -37.5t-1.5 -37.5t-1 -31.5q0 -30 2.5 -47t7 -25.5t11.5 -10t15 -1.5q36 0 42 49q13 -11 26 -19.5t26 -15.5q-23 -38 -48 -52 t-52 -14q-15 0 -30.5 2.5t-28 14t-21 34.5t-8.5 65q0 16 1 36l2 38l2 38q1 18 1 31q0 28 -2 47.5t-9 32t-20.5 18t-37.5 5.5q-34 0 -52.5 -17t-24.5 -40q0 -45 -1 -84t-1.5 -75t-1.5 -70t-1 -69q-8 1 -14.5 1.5t-13.5 0.5t-14 -0.5t-14 -1.5q2 97 3 188.5t1 187.5 q0 132 -8.5 213t-16.5 120q9 -1 17.5 -1.5t16.5 -0.5q11 0 21 0.5t20 1.5q-1 -17 -1.5 -33t-0.5 -31q0 -61 3.5 -122.5t5.5 -133.5l66 100l55 83q26 39 47.5 75.5t39.5 74.5z" />
<glyph unicode="L" horiz-adv-x="274" d="M52 708q18 -3 37 -3q17 0 37 3q-1 -5 -3 -35t-4.5 -75t-5 -101.5t-5.5 -115l-6 -115.5l-4 -102q-2 -45 -3.5 -75t-1.5 -35h43q33 0 68 2.5t64 8.5q-4 -15 -4 -34q0 -22 4 -37q-41 6 -101 6h-138q1 5 3.5 35t5.5 77l6 106q4 60 6.5 124t4.5 128t2 120q0 45 -1.5 74 t-3.5 44z" />
<glyph unicode="M" horiz-adv-x="539" d="M454 692q0 -28 2 -64.5t8 -84.5q8 -69 15.5 -141.5t16.5 -143.5t20 -137t25 -122q-10 1 -19 1.5t-19 0.5t-19.5 -0.5t-18.5 -1.5q1 4 1 9v12q0 21 -3 57t-7.5 82.5t-10.5 100.5t-11.5 110.5t-10.5 113t-8 108.5q-35 -165 -61 -309.5t-55 -282.5q-7 1 -13 1.5t-13 0.5 q-8 0 -15.5 -0.5t-15.5 -1.5l-22 132q-12 66 -22.5 137t-20 149t-17.5 167q-5 -58 -12.5 -119.5t-16 -121t-17.5 -114.5l-18 -102q-8 -46 -15 -81t-11 -53q-16 2 -32 3t-32 1q9 33 21.5 90.5l26.5 127.5l26 144q14 76 24.5 144t17 122.5t6.5 82.5q21 -3 38 -3q18 0 33 3 q0 -29 7 -89l18 -142l24 -178q12 -97 22 -199q14 105 33 201.5t37 175.5l30 139q12 59 12 90q5 -2 10 -2h11h14h14h11q6 0 12 2v-15z" />
<glyph unicode="N" d="M316 710q19 -3 40 -3q8 0 16 0.5t16 1.5q-5 -40 -9 -104.5t-6.5 -140.5t-4 -156.5t-1.5 -151.5q0 -45 1 -84t3 -74q-14 0 -28.5 -0.5t-31.5 -4.5q-39 121 -70.5 209t-58.5 155t-50 119l-47 99q-4 -75 -6 -148t-2 -151q0 -137 6 -284q-8 1 -15 1.5t-15 0.5q-7 0 -14 -0.5 t-15 -1.5q8 78 11 183t3 238q0 146 -3 295q6 -2 12 -2h12h16h15h12q5 0 11 2q52 -183 106 -316.5t102 -237.5v220q0 89 -1 150.5t-2 103.5z" />
<glyph unicode="O" horiz-adv-x="444" d="M84 353q0 -97 14 -158t35 -95t44.5 -46.5t43.5 -12.5q17 0 41 11t45.5 44t37 94.5t15.5 162.5q0 76 -8 129.5t-20 88.5t-28 55t-31 29.5t-29 12t-23 2.5q-19 0 -43 -8.5t-45 -41t-35 -95.5t-14 -172zM221 726q44 0 80.5 -18.5t63 -62t41 -115t14.5 -177.5 q0 -86 -8.5 -146.5t-23.5 -101.5t-35 -65t-42 -36.5t-45 -16t-45 -3.5q-34 0 -69 14.5t-63.5 52.5t-46.5 104t-18 168q0 93 8.5 159t23.5 111t34.5 71.5t41.5 40t45 17.5t44 4z" />
<glyph unicode="P" horiz-adv-x="386" d="M103 663q2 -69 3.5 -130.5t1.5 -124.5q0 -20 -0.5 -41t-1.5 -44q16 -2 30.5 -3.5t28.5 -1.5q33 0 59 8t44 27t28 50t10 78q0 51 -5.5 86.5t-21.5 57t-45.5 31t-77.5 9.5q-12 0 -26 -0.5t-27 -1.5zM104 0q-13 1 -26 1h-25h-11q-6 0 -13 -2q11 42 17.5 164t6.5 312 q0 78 -1.5 139.5t-5.5 101.5q48 3 87 3q56 0 99 -8t72.5 -30.5t44.5 -62.5t15 -104q0 -71 -15.5 -119t-43.5 -78t-65.5 -43t-82.5 -13q-27 0 -52 6q-6 -99 -6 -169q0 -30 1.5 -54t3.5 -44z" />
<glyph unicode="Q" horiz-adv-x="444" d="M339 -114q25 -12 53 -15q-6 -29 -29 -50t-58 -21q-33 0 -55.5 13.5t-36.5 35.5t-20 49.5t-6 55.5v14q0 6 1 13q-30 7 -59.5 27t-53 59.5t-37.5 101t-14 151.5q0 94 8.5 160.5t23.5 111.5t34.5 72t41.5 40.5t44.5 17.5t44.5 4q43 0 79.5 -18.5t63 -62t41.5 -115t15 -177.5 q0 -117 -15.5 -188.5t-40.5 -111.5t-56 -55t-61 -18q-3 -17 -3 -35q0 -17 3 -32.5t10 -28t19 -20t29 -7.5q8 0 21 6.5t13 22.5zM82 353q0 -97 14.5 -159t35.5 -97t45 -48.5t44 -13.5q17 0 40.5 12t45 46.5t36.5 96.5t15 163q0 76 -7.5 129.5t-20 88.5t-27.5 55t-30.5 29.5 t-29 12t-22.5 2.5q-18 0 -42 -8.5t-45 -41t-36 -95.5t-16 -172z" />
<glyph unicode="R" horiz-adv-x="277" d="M269 715q-5 -26 -6 -56q-17 3 -34 3q-54 0 -90.5 -33t-44.5 -91v-52q0 -28 0.5 -65t0.5 -89v-124q0 -69 2.5 -119.5t7.5 -90.5q-24 3 -48 3h-14q-7 0 -14 -1q5 45 8 111t3 162q0 181 -3 286.5t-8 147.5q18 -3 33 -3t32 3l-7 -82q14 29 31.5 47.5t37 28.5t41 13.5 t42.5 3.5q15 0 30 -3z" />
<glyph unicode="S" horiz-adv-x="353" d="M318 490l-24 4q-10 1 -20 1q-7 0 -13.5 -0.5t-12.5 -1.5q16 36 16 74q0 54 -21 75t-63 21q-86 0 -86 -107q0 -22 3.5 -43t16 -43.5t36.5 -47.5t65 -56q36 -28 59 -52.5t35.5 -49t17 -50t4.5 -54.5q0 -93 -39.5 -133.5t-113.5 -40.5q-79 0 -114.5 48.5t-35.5 151.5v13 q0 6 1 14q5 -1 10 -1h10q28 0 51 4q-12 -54 -12 -89q0 -24 8 -40t20.5 -25.5t28.5 -13.5t32 -4q18 0 35.5 7t31.5 21t22.5 35.5t8.5 51.5q0 22 -4.5 43t-17.5 43t-36.5 46t-60.5 53q-35 27 -58 54t-36.5 54t-19 55.5t-5.5 58.5q0 46 11.5 76t30 47.5t43 24.5t51.5 7 q47 0 76 -12.5t44.5 -37t21 -60.5t5.5 -82v-19q0 -9 -2 -20z" />
<glyph unicode="T" horiz-adv-x="302" d="M293 713q-1 -9 -1.5 -17t-0.5 -16q0 -9 0.5 -17t1.5 -16q-47 8 -110 9l-2 -198q-1 -97 -1 -194q0 -211 10 -264q-5 2 -10 2h-9h-23q-15 0 -29 -2q6 37 9.5 150.5t3.5 291.5q0 76 -2 127.5t-4 84.5q-68 -3 -110 -9q1 11 1.5 21t0.5 21v13q0 6 -1 13q69 -6 138 -6t138 6z " />
<glyph unicode="U" horiz-adv-x="395" d="M304 708q18 -3 36 -3h15q7 0 15 1q-5 -34 -6.5 -71.5t-1.5 -82.5q0 -31 0.5 -66t0.5 -75q0 -95 -0.5 -163t-5 -115t-14.5 -75.5t-28.5 -43.5t-48.5 -20t-73 -5q-25 0 -46.5 3.5t-39 18t-31 43t-22.5 78.5t-14 125.5t-5 183.5q0 34 1 64t1 58q0 81 -9 146q18 -3 35 -3 t34 3q-5 -45 -8 -100t-3 -127q0 -142 3.5 -228t16.5 -132.5t38.5 -61.5t69.5 -15q35 0 54.5 12t29 37.5t11.5 66.5t2 98q0 157 -2.5 267t-4.5 182z" />
<glyph unicode="V" horiz-adv-x="375" d="M306 714q18 -5 35.5 -7.5t35.5 -4.5q-19 -42 -58.5 -218t-99.5 -491q-9 1 -19 1h-17h-9q-4 0 -9 -2q-114 625 -153 711q20 2 38 5t34 9q16 -73 29.5 -142.5t26.5 -144.5l25 -159l28 -186l17 103q8 52 20 122l31 166z" />
<glyph unicode="W" horiz-adv-x="579" d="M503 706q18 -4 37 -4.5t39 -0.5q-17 -51 -39.5 -137.5t-53.5 -222.5q-31 -132 -47 -218.5t-20 -131.5q-32 3 -66 3q-3 62 -12 131t-20 146l-23 163q-13 87 -23 184q-13 -99 -27 -183l-29 -159q-14 -74 -29 -142l-27 -133q-16 -2 -31.5 -3.5t-31.5 -4.5l-41 361 q-16 141 -30 228t-28 135q5 -1 9 -1h9q30 0 51 7q10 -77 17 -147l14 -143l15 -149q8 -78 20 -168q33 165 58 310t42 285q12 -3 24 -4t23 -1q8 0 17 0.5t17 1.5q8 -132 30.5 -271t42.5 -295q17 84 34 155l30 137q15 67 27.5 132.5t21.5 139.5z" />
<glyph unicode="X" horiz-adv-x="376" d="M312 717q32 -14 69 -22l-49 -89l-46 -84l-44 -83l-42 -87q26 -92 57.5 -174.5t70.5 -172.5q-35 -4 -67 -18l-20 71l-21 72l-24 76l-27 89l-31 -80q-16 -39 -29.5 -77.5t-24.5 -78t-18 -82.5q-16 7 -32.5 13.5t-33.5 11.5l143 352l-29 90l-29 84l-31 84l-37 90 q19 3 37 6.5t35 10.5q8 -40 16 -74t18 -69t23 -76l31 -92l41 92l34 75l30 69q15 34 30 73z" />
<glyph unicode="Y" horiz-adv-x="408" d="M338 724q30 -23 63 -36q-54 -75 -96.5 -164.5t-68.5 -189.5v-188q0 -71 6 -146q-8 0 -16 0.5t-16 0.5q-20 0 -39 -3q3 31 5 59t3.5 57.5t2 62.5t0.5 74v77l-38 84l-43 94l-47 96l-47 89q34 10 66 30l63 -157q31 -78 66 -175q32 102 68 183z" />
<glyph unicode="Z" horiz-adv-x="338" d="M313 708q0 -12 0.5 -22t2.5 -19q-7 -16 -20 -49l-28 -76l-34 -94l-38 -102l-36 -102l-34 -89l-26 -69q-11 -28 -16 -38q66 5 117 7.5t103 4.5q-4 -17 -4 -45q0 -5 0.5 -11t0.5 -11q-69 6 -135 6q-34 0 -68 -1.5t-68 -3.5q0 11 -2.5 22t-4.5 19q8 17 25 63l40 109l48 131 l48 133l42 112q19 49 29 70q-20 3 -66 3q-45 0 -80 -1t-77 -6q3 18 3 36q0 13 -3 30q16 -2 49.5 -5.5t90.5 -3.5q54 0 88.5 0.5t52.5 1.5z" />
<glyph unicode="[" horiz-adv-x="337" d="M291 786q1 -14 3.5 -28.5t7.5 -29.5q-14 -1 -34 -2l-39 -2l-39 -2q-18 -1 -30 -3q0 -42 -1 -95t-1.5 -108.5t-1.5 -109t-1 -95.5v-55q0 -36 0.5 -78.5t1.5 -88.5t2.5 -88.5t3.5 -78t5 -55.5q22 -2 43.5 -3.5t44.5 -1.5q29 0 61 3q-3 -17 -3 -31q0 -16 3 -31 q-24 5 -49.5 7t-52.5 2q-24 0 -50 -1t-55 -3q0 139 1 280.5t1 300.5q0 41 -1 93t-2.5 105.5t-3.5 103.5t-5 88q12 -1 25 -1.5t26 -0.5q40 0 77.5 2.5t62.5 6.5z" />
<glyph unicode="\" horiz-adv-x="290" d="M0 703q17 2 33 5t33 9q6 -26 22 -84l38 -132l46 -155l47 -154l39 -128q17 -55 24 -76q-17 0 -34.5 -1.5t-34.5 -6.5q-4 23 -19 80l-34 130l-44 154l-46 154l-40 128q-19 56 -30 77z" />
<glyph unicode="]" horiz-adv-x="351" d="M45 728q11 28 11 58q25 -4 62.5 -6.5t77.5 -2.5q13 0 26 0.5t25 1.5q-3 -38 -5.5 -88t-4 -103.5t-2 -105.5t-0.5 -93q0 -159 1 -300.5t1 -280.5q-29 2 -55 3t-50 1q-27 0 -52.5 -2t-49.5 -7q3 15 3 31q0 14 -3 31q31 -3 61 -3q23 0 44.5 1.5t43.5 3.5q3 21 5 56t3.5 77.5 t2.5 88.5t1.5 88.5t0.5 77.5v56q0 42 -1 95.5t-1.5 109t-1.5 108.5t-1 95q-12 2 -31 3l-38 2l-40 2q-19 1 -33 2z" />
<glyph unicode="^" horiz-adv-x="368" d="M212 726q23 -48 59 -97t81 -103q-29 -6 -57 -28l-33 48l-26 39l-24 34l-23 32l-24 -31q-12 -15 -24 -32l-25 -38q-14 -20 -29 -46q-22 11 -58 22l81 102q39 49 65 97z" />
<glyph unicode="_" horiz-adv-x="388" d="M379 -66q-2 -11 -3.5 -21t-1.5 -20q0 -7 0.5 -13.5t1.5 -13.5q-29 4 -74 6t-106 2q-63 0 -107 -1t-73 -3q2 10 3 21t1 23v12q0 6 -1 12q24 -5 59 -6.5t83 -1.5q78 0 131 0.5t87 3.5z" />
<glyph unicode="`" horiz-adv-x="237" d="M218 812q-9 -9 -17 -20.5t-14 -26.5l-79 67q-41 35 -80 64q28 17 42 38q27 -35 63.5 -68t84.5 -54z" />
<glyph unicode="a" d="M365 93q0 -50 36 -93q-20 0 -38.5 -1t-38.5 -5q-4 3 -7 10t-5 15t-3 16t-1 14q-29 -59 -103 -59q-44 0 -77.5 21.5t-55.5 55.5t-33 76.5t-11 84.5q0 124 49.5 187t133.5 63q30 0 58.5 -16t45.5 -43q1 13 1 25v24q0 60 -6.5 99.5t-18.5 62.5t-29.5 32.5t-39.5 9.5 t-41.5 -5t-34.5 -18.5t-23.5 -36t-8.5 -58.5q0 -8 0.5 -16t1.5 -17q-20 4 -37.5 4.5t-36.5 0.5q9 61 25.5 99.5t38.5 60.5t49.5 30.5t59.5 8.5q35 0 68.5 -15t53.5 -44q19 -29 23.5 -83.5t4.5 -139.5v-350zM307 328q-7 46 -36.5 71t-65.5 25q-32 0 -54 -16.5t-36.5 -42.5 t-21 -60t-6.5 -68q0 -28 5.5 -61t20 -61.5t39.5 -48t63 -19.5q27 0 51.5 14t40.5 46v221z" />
<glyph unicode="b" horiz-adv-x="446" d="M44 711q32 3 66.5 4t68.5 1q56 0 95 -11.5t63 -34t34.5 -55.5t10.5 -76q0 -60 -32 -99.5t-89 -61.5q34 -2 63.5 -16t51 -38.5t33.5 -57.5t12 -73q0 -45 -12 -81t-41 -62t-77 -40t-121 -14q-35 0 -70 1t-71 4q8 20 14 65t10 110.5t6 148.5t2 178q0 78 -4 127.5t-13 80.5z M176 347q-17 0 -32 -1l-29 -2q-4 -77 -6.5 -144.5t-8.5 -144.5q19 -1 37.5 -3.5t37.5 -2.5q37 0 71.5 6t61 22.5t42 45.5t15.5 75q0 73 -44.5 111t-144.5 38zM115 402q54 0 94 5.5t66 20.5t38.5 43t12.5 73q0 34 -10.5 57t-29.5 37.5t-45 20.5t-57 6q-17 0 -35 -1l-37 -2 q2 -45 3 -87t1 -85v-44q0 -21 -1 -44z" />
<glyph unicode="c" horiz-adv-x="401" d="M372 453q-15 4 -40 4q-8 0 -15 -0.5t-15 -1.5q7 21 7 55q0 72 -25.5 115t-70.5 43q-35 0 -60 -23.5t-42 -65t-25 -99t-8 -124.5q0 -38 4 -91t16.5 -101.5t37.5 -82.5t67 -34q18 0 36.5 7t33 26t24 51.5t9.5 83.5q0 13 -1 25t-3 24q25 -6 49 -6h11q5 0 10 1l-25 -119 q-11 -50 -27.5 -83.5t-42 -50t-68.5 -16.5q-39 0 -67.5 17.5t-49 47t-34 67t-21 77.5t-10.5 79t-3 72q0 36 2.5 78t10 83.5t20.5 80t34 68t51.5 47.5t72.5 18q52 0 82 -27.5t46 -69t21 -89t8 -86.5z" />
<glyph unicode="d" horiz-adv-x="417" d="M113 707q37 0 62 -3t41 -8q27 -9 58 -27.5t57.5 -58t44 -107.5t17.5 -176q0 -94 -22.5 -157t-59 -101.5t-82.5 -54.5t-94 -16q-20 0 -45 0.5t-49 1.5q1 29 1.5 57t0.5 57q0 147 -7 295t-7 298h84zM99 49q7 -2 15.5 -2.5t17.5 -0.5q38 0 76 15t68 48t49 86t19 129 q0 52 -3 90.5t-9 67t-15.5 50t-22.5 41.5q-10 14 -26 28t-36 25.5t-44.5 18.5t-51.5 7q-23 0 -50 -3q2 -148 7.5 -279.5t5.5 -261.5v-59z" />
<glyph unicode="e" horiz-adv-x="432" d="M82 429q70 -3 141 -3q54 0 107 3q1 9 1 18v18q0 53 -8.5 92t-23 64.5t-34 37.5t-41.5 12q-44 0 -71.5 -26.5t-43.5 -64t-21.5 -79t-5.5 -72.5zM390 373q-77 -3 -154 -3q-78 0 -156 3q-1 -11 -1 -21v-20q0 -61 12.5 -112.5t34.5 -89t50.5 -58.5t61.5 -21q25 0 44.5 12.5 t33.5 33t21.5 46.5t7.5 54q0 32 -8 72q11 -3 21 -4t20 -1q8 0 15 0.5t15 1.5q-2 -62 -12 -112t-30 -85t-52.5 -54.5t-78.5 -19.5q-43 0 -75 16.5t-55.5 43.5t-39 63t-24.5 75t-13 78t-4 74q0 81 7 150.5t28.5 119.5t60.5 78.5t103 28.5q25 0 49 -9t44.5 -26.5t35.5 -43.5 t21 -59q9 -51 12.5 -102.5t4.5 -108.5z" />
<glyph unicode="f" horiz-adv-x="339" d="M315 709q1 -18 4 -34t6 -30q-29 5 -58.5 6t-60.5 1q-27 0 -54.5 -0.5t-56.5 -0.5q-1 -26 -1.5 -50t-0.5 -47q0 -32 0.5 -64t2.5 -67q14 -1 32 -1.5t53 -0.5q17 0 42.5 2t50.5 6q-2 -11 -3 -23t-1 -23v-11q0 -6 1 -12q-26 4 -45 5t-36 1q-22 0 -45 -0.5t-46 -2.5 q-2 -34 -3 -85.5t-1 -121.5q0 -103 6 -158h-72q4 17 7 40.5t4.5 72t2.5 130.5t1 217q0 70 -0.5 112t-2 67.5t-4.5 40.5t-7 31h285z" />
<glyph unicode="g" horiz-adv-x="406" d="M360 453q-23 3 -43 3h-15q-7 0 -15 -1q5 17 9 37.5t4 45.5q0 57 -21.5 88t-69.5 31q-31 0 -56 -17t-42 -54.5t-26.5 -97.5t-9.5 -145q0 -54 7 -107t23 -95.5t43 -68.5t68 -26q51 0 77.5 50t26.5 131q0 15 -0.5 31.5t-1.5 36.5q-28 -1 -48 -2l-40 -2q-19 -1 -38 -2.5 t-44 -4.5q0 23 -0.5 41.5t-2.5 36.5q51 -15 95 -15q21 0 56 1.5t86 3.5q-5 -26 -6.5 -51.5t-1.5 -52.5q0 -52 -9 -98t-27.5 -80.5t-47 -54.5t-67.5 -20q-60 0 -98.5 32.5t-61 82.5t-31 109.5t-8.5 114.5q0 69 5 137t24 122t57 87.5t103 33.5q56 0 84 -26.5t40.5 -66t15 -85 t7.5 -83.5z" />
<glyph unicode="h" horiz-adv-x="410" d="M313 708q5 -2 11 -2h10h14h14h10q6 0 11 2q-6 -38 -9.5 -150t-3.5 -308q0 -97 1 -158t6 -92q-9 1 -18 1.5t-18 0.5t-18 -0.5t-18 -1.5q7 66 9 338q-26 2 -52 3t-52 1q-29 0 -57 -1t-57 -4q0 -268 6 -338q-18 3 -36 3q-19 0 -37 -3q5 32 8 104.5t3 193.5q0 332 -6 412 q8 -1 15 -1.5t15 -0.5q9 0 18 0.5t18 1.5q-3 -29 -4 -80t-1 -132v-102q49 -3 99 -3q61 0 121 3q0 45 1 83t1 76t-0.5 76.5t-3.5 77.5z" />
<glyph unicode="i" horiz-adv-x="139" d="M31 707q6 -2 12 -2h11h16h17h11q6 0 12 2q-5 -48 -7.5 -145t-2.5 -256q0 -222 12 -306q-11 1 -21 1.5t-21 0.5q-10 0 -20 -0.5t-21 -1.5q15 93 15 357q0 137 -3 221t-10 129z" />
<glyph unicode="j" horiz-adv-x="364" d="M260 707q15 -4 35 -4q11 0 22 1.5t24 3.5q-12 -72 -12 -183q0 -21 0.5 -43t1 -48.5t1 -59.5t0.5 -76q0 -51 -5.5 -105.5t-23 -99.5t-51 -74t-89.5 -29q-75 0 -110 43.5t-35 121.5q0 29 3.5 58.5t8.5 53.5q34 -11 69 -12q-10 -13 -17.5 -40.5t-7.5 -69.5q0 -45 23.5 -73.5 t61.5 -28.5q37 0 60 24t36 69t17.5 109.5t4.5 145.5q0 109 -5.5 187t-11.5 129z" />
<glyph unicode="k" horiz-adv-x="437" d="M319 721q18 -8 36.5 -12.5t38.5 -8.5l-60 -72q-25 -31 -48 -63l-50 -71l-66 -97q24 7 49 7q48 0 71.5 -32.5t23.5 -104.5q0 -14 -1 -32.5t-1.5 -37.5t-1.5 -37.5t-1 -31.5q0 -30 2.5 -47t7 -25.5t11.5 -10t15 -1.5q36 0 42 49q13 -11 26 -19.5t26 -15.5q-23 -38 -48 -52 t-52 -14q-15 0 -30.5 2.5t-28 14t-21 34.5t-8.5 65q0 16 1 36l2 38l2 38q1 18 1 31q0 28 -2 47.5t-9 32t-20.5 18t-37.5 5.5q-34 0 -52.5 -17t-24.5 -40q0 -45 -1 -84t-1.5 -75t-1.5 -70t-1 -69q-8 1 -14.5 1.5t-13.5 0.5t-14 -0.5t-14 -1.5q2 97 3 188.5t1 187.5 q0 132 -8.5 213t-16.5 120q9 -1 17.5 -1.5t16.5 -0.5q11 0 21 0.5t20 1.5q-1 -17 -1.5 -33t-0.5 -31q0 -61 3.5 -122.5t5.5 -133.5l66 100l55 83q26 39 47.5 75.5t39.5 74.5z" />
<glyph unicode="l" horiz-adv-x="274" d="M52 708q18 -3 37 -3q17 0 37 3q-1 -5 -3 -35t-4.5 -75t-5 -101.5t-5.5 -115l-6 -115.5l-4 -102q-2 -45 -3.5 -75t-1.5 -35h43q33 0 68 2.5t64 8.5q-4 -15 -4 -34q0 -22 4 -37q-41 6 -101 6h-138q1 5 3.5 35t5.5 77l6 106q4 60 6.5 124t4.5 128t2 120q0 45 -1.5 74 t-3.5 44z" />
<glyph unicode="m" horiz-adv-x="539" d="M454 692q0 -28 2 -64.5t8 -84.5q8 -69 15.5 -141.5t16.5 -143.5t20 -137t25 -122q-10 1 -19 1.5t-19 0.5t-19.5 -0.5t-18.5 -1.5q1 4 1 9v12q0 21 -3 57t-7.5 82.5t-10.5 100.5t-11.5 110.5t-10.5 113t-8 108.5q-35 -165 -61 -309.5t-55 -282.5q-7 1 -13 1.5t-13 0.5 q-8 0 -15.5 -0.5t-15.5 -1.5l-22 132q-12 66 -22.5 137t-20 149t-17.5 167q-5 -58 -12.5 -119.5t-16 -121t-17.5 -114.5l-18 -102q-8 -46 -15 -81t-11 -53q-16 2 -32 3t-32 1q9 33 21.5 90.5l26.5 127.5l26 144q14 76 24.5 144t17 122.5t6.5 82.5q21 -3 38 -3q18 0 33 3 q0 -29 7 -89l18 -142l24 -178q12 -97 22 -199q14 105 33 201.5t37 175.5l30 139q12 59 12 90q5 -2 10 -2h11h14h14h11q6 0 12 2v-15z" />
<glyph unicode="n" d="M316 710q19 -3 40 -3q8 0 16 0.5t16 1.5q-5 -40 -9 -104.5t-6.5 -140.5t-4 -156.5t-1.5 -151.5q0 -45 1 -84t3 -74q-14 0 -28.5 -0.5t-31.5 -4.5q-39 121 -70.5 209t-58.5 155t-50 119l-47 99q-4 -75 -6 -148t-2 -151q0 -137 6 -284q-8 1 -15 1.5t-15 0.5q-7 0 -14 -0.5 t-15 -1.5q8 78 11 183t3 238q0 146 -3 295q6 -2 12 -2h12h16h15h12q5 0 11 2q52 -183 106 -316.5t102 -237.5v220q0 89 -1 150.5t-2 103.5z" />
<glyph unicode="o" horiz-adv-x="444" d="M84 353q0 -97 14 -158t35 -95t44.5 -46.5t43.5 -12.5q17 0 41 11t45.5 44t37 94.5t15.5 162.5q0 76 -8 129.5t-20 88.5t-28 55t-31 29.5t-29 12t-23 2.5q-19 0 -43 -8.5t-45 -41t-35 -95.5t-14 -172zM221 726q44 0 80.5 -18.5t63 -62t41 -115t14.5 -177.5 q0 -86 -8.5 -146.5t-23.5 -101.5t-35 -65t-42 -36.5t-45 -16t-45 -3.5q-34 0 -69 14.5t-63.5 52.5t-46.5 104t-18 168q0 93 8.5 159t23.5 111t34.5 71.5t41.5 40t45 17.5t44 4z" />
<glyph unicode="p" horiz-adv-x="386" d="M103 663q2 -69 3.5 -130.5t1.5 -124.5q0 -20 -0.5 -41t-1.5 -44q16 -2 30.5 -3.5t28.5 -1.5q33 0 59 8t44 27t28 50t10 78q0 51 -5.5 86.5t-21.5 57t-45.5 31t-77.5 9.5q-12 0 -26 -0.5t-27 -1.5zM104 0q-13 1 -26 1h-25h-11q-6 0 -13 -2q11 42 17.5 164t6.5 312 q0 78 -1.5 139.5t-5.5 101.5q48 3 87 3q56 0 99 -8t72.5 -30.5t44.5 -62.5t15 -104q0 -71 -15.5 -119t-43.5 -78t-65.5 -43t-82.5 -13q-27 0 -52 6q-6 -99 -6 -169q0 -30 1.5 -54t3.5 -44z" />
<glyph unicode="q" horiz-adv-x="444" d="M339 -114q25 -12 53 -15q-6 -29 -29 -50t-58 -21q-33 0 -55.5 13.5t-36.5 35.5t-20 49.5t-6 55.5v14q0 6 1 13q-30 7 -59.5 27t-53 59.5t-37.5 101t-14 151.5q0 94 8.5 160.5t23.5 111.5t34.5 72t41.5 40.5t44.5 17.5t44.5 4q43 0 79.5 -18.5t63 -62t41.5 -115t15 -177.5 q0 -117 -15.5 -188.5t-40.5 -111.5t-56 -55t-61 -18q-3 -17 -3 -35q0 -17 3 -32.5t10 -28t19 -20t29 -7.5q8 0 21 6.5t13 22.5zM82 353q0 -97 14.5 -159t35.5 -97t45 -48.5t44 -13.5q17 0 40.5 12t45 46.5t36.5 96.5t15 163q0 76 -7.5 129.5t-20 88.5t-27.5 55t-30.5 29.5 t-29 12t-22.5 2.5q-18 0 -42 -8.5t-45 -41t-36 -95.5t-16 -172z" />
<glyph unicode="r" horiz-adv-x="277" d="M269 715q-5 -26 -6 -56q-17 3 -34 3q-54 0 -90.5 -33t-44.5 -91v-52q0 -28 0.5 -65t0.5 -89v-124q0 -69 2.5 -119.5t7.5 -90.5q-24 3 -48 3h-14q-7 0 -14 -1q5 45 8 111t3 162q0 181 -3 286.5t-8 147.5q18 -3 33 -3t32 3l-7 -82q14 29 31.5 47.5t37 28.5t41 13.5 t42.5 3.5q15 0 30 -3z" />
<glyph unicode="s" horiz-adv-x="353" d="M318 490l-24 4q-10 1 -20 1q-7 0 -13.5 -0.5t-12.5 -1.5q16 36 16 74q0 54 -21 75t-63 21q-86 0 -86 -107q0 -22 3.5 -43t16 -43.5t36.5 -47.5t65 -56q36 -28 59 -52.5t35.5 -49t17 -50t4.5 -54.5q0 -93 -39.5 -133.5t-113.5 -40.5q-79 0 -114.5 48.5t-35.5 151.5v13 q0 6 1 14q5 -1 10 -1h10q28 0 51 4q-12 -54 -12 -89q0 -24 8 -40t20.5 -25.5t28.5 -13.5t32 -4q18 0 35.5 7t31.5 21t22.5 35.5t8.5 51.5q0 22 -4.5 43t-17.5 43t-36.5 46t-60.5 53q-35 27 -58 54t-36.5 54t-19 55.5t-5.5 58.5q0 46 11.5 76t30 47.5t43 24.5t51.5 7 q47 0 76 -12.5t44.5 -37t21 -60.5t5.5 -82v-19q0 -9 -2 -20z" />
<glyph unicode="t" horiz-adv-x="302" d="M293 713q-1 -9 -1.5 -17t-0.5 -16q0 -9 0.5 -17t1.5 -16q-47 8 -110 9l-2 -198q-1 -97 -1 -194q0 -211 10 -264q-5 2 -10 2h-9h-23q-15 0 -29 -2q6 37 9.5 150.5t3.5 291.5q0 76 -2 127.5t-4 84.5q-68 -3 -110 -9q1 11 1.5 21t0.5 21v13q0 6 -1 13q69 -6 138 -6t138 6z " />
<glyph unicode="u" horiz-adv-x="395" d="M304 708q18 -3 36 -3h15q7 0 15 1q-5 -34 -6.5 -71.5t-1.5 -82.5q0 -31 0.5 -66t0.5 -75q0 -95 -0.5 -163t-5 -115t-14.5 -75.5t-28.5 -43.5t-48.5 -20t-73 -5q-25 0 -46.5 3.5t-39 18t-31 43t-22.5 78.5t-14 125.5t-5 183.5q0 34 1 64t1 58q0 81 -9 146q18 -3 35 -3 t34 3q-5 -45 -8 -100t-3 -127q0 -142 3.5 -228t16.5 -132.5t38.5 -61.5t69.5 -15q35 0 54.5 12t29 37.5t11.5 66.5t2 98q0 157 -2.5 267t-4.5 182z" />
<glyph unicode="v" horiz-adv-x="375" d="M306 714q18 -5 35.5 -7.5t35.5 -4.5q-19 -42 -58.5 -218t-99.5 -491q-9 1 -19 1h-17h-9q-4 0 -9 -2q-114 625 -153 711q20 2 38 5t34 9q16 -73 29.5 -142.5t26.5 -144.5l25 -159l28 -186l17 103q8 52 20 122l31 166z" />
<glyph unicode="w" horiz-adv-x="579" d="M503 706q18 -4 37 -4.5t39 -0.5q-17 -51 -39.5 -137.5t-53.5 -222.5q-31 -132 -47 -218.5t-20 -131.5q-32 3 -66 3q-3 62 -12 131t-20 146l-23 163q-13 87 -23 184q-13 -99 -27 -183l-29 -159q-14 -74 -29 -142l-27 -133q-16 -2 -31.5 -3.5t-31.5 -4.5l-41 361 q-16 141 -30 228t-28 135q5 -1 9 -1h9q30 0 51 7q10 -77 17 -147l14 -143l15 -149q8 -78 20 -168q33 165 58 310t42 285q12 -3 24 -4t23 -1q8 0 17 0.5t17 1.5q8 -132 30.5 -271t42.5 -295q17 84 34 155l30 137q15 67 27.5 132.5t21.5 139.5z" />
<glyph unicode="x" horiz-adv-x="376" d="M312 717q32 -14 69 -22l-49 -89l-46 -84l-44 -83l-42 -87q26 -92 57.5 -174.5t70.5 -172.5q-35 -4 -67 -18l-20 71l-21 72l-24 76l-27 89l-31 -80q-16 -39 -29.5 -77.5t-24.5 -78t-18 -82.5q-16 7 -32.5 13.5t-33.5 11.5l143 352l-29 90l-29 84l-31 84l-37 90 q19 3 37 6.5t35 10.5q8 -40 16 -74t18 -69t23 -76l31 -92l41 92l34 75l30 69q15 34 30 73z" />
<glyph unicode="y" horiz-adv-x="408" d="M338 724q30 -23 63 -36q-54 -75 -96.5 -164.5t-68.5 -189.5v-188q0 -71 6 -146q-8 0 -16 0.5t-16 0.5q-20 0 -39 -3q3 31 5 59t3.5 57.5t2 62.5t0.5 74v77l-38 84l-43 94l-47 96l-47 89q34 10 66 30l63 -157q31 -78 66 -175q32 102 68 183z" />
<glyph unicode="z" horiz-adv-x="338" d="M313 708q0 -12 0.5 -22t2.5 -19q-7 -16 -20 -49l-28 -76l-34 -94l-38 -102l-36 -102l-34 -89l-26 -69q-11 -28 -16 -38q66 5 117 7.5t103 4.5q-4 -17 -4 -45q0 -5 0.5 -11t0.5 -11q-69 6 -135 6q-34 0 -68 -1.5t-68 -3.5q0 11 -2.5 22t-4.5 19q8 17 25 63l40 109l48 131 l48 133l42 112q19 49 29 70q-20 3 -66 3q-45 0 -80 -1t-77 -6q3 18 3 36q0 13 -3 30q16 -2 49.5 -5.5t90.5 -3.5q54 0 88.5 0.5t52.5 1.5z" />
<glyph unicode="{" horiz-adv-x="365" d="M301 784q-12 -34 -16 -68q-13 13 -33 13q-24 0 -38 -19t-14 -52q0 -21 4 -50t9.5 -60.5t9.5 -62.5t4 -56q0 -23 -2.5 -42.5t-11 -36.5t-24.5 -30.5t-44 -24.5q37 -11 50.5 -40.5t13.5 -83.5q0 -32 -2.5 -63.5t-2.5 -51.5q0 -11 1.5 -30t5 -41t9 -44.5t13.5 -41t19 -30 t25 -11.5q21 0 44 24q4 -19 13 -35t21 -31q-16 -7 -33 -11.5t-35 -4.5q-35 0 -60.5 12.5t-42.5 33.5t-25.5 49t-8.5 59q0 12 0.5 37t0.5 52t0.5 52t0.5 37q0 40 -3.5 66t-11.5 41t-22 21t-35 7q3 16 3 33q0 12 -3 26q19 2 35.5 7.5t28.5 18t18.5 34t6.5 55.5q0 22 -3 53 l-8 63l-6 61q-4 29 -4 49q0 30 10 52.5t26.5 37.5t39 22.5t47.5 7.5q16 0 30 -3z" />
<glyph unicode="|" horiz-adv-x="171" d="M52 763q19 -6 38 -6q5 0 9 0.5t9 1.5q-2 -20 -3 -48l-2 -57q-1 -30 -1 -58v-48q0 -71 3 -151.5t7 -163.5t7 -163.5t3 -150.5q0 -23 -0.5 -46t-1.5 -46q-8 1 -14.5 1.5t-13.5 0.5t-14 -0.5t-14 -1.5q1 19 1 37v37q0 72 -3 153.5t-6.5 165.5t-6.5 166.5t-3 155.5v50 q0 30 1 60l2 60q1 30 3 51z" />
<glyph unicode="}" horiz-adv-x="353" d="M74 -197q12 34 16 68q13 -13 33 -13q24 0 38 19t14 52q0 21 -4 50t-9.5 60.5t-9.5 62t-4 56.5q0 23 2.5 42.5t11 36.5t24.5 30.5t44 24.5q-37 11 -50.5 40.5t-13.5 83.5q0 32 2.5 63.5t2.5 51.5q0 11 -1.5 30t-5 41t-9 44.5t-13.5 41t-19 30t-25 11.5q-22 0 -44 -24 q-4 19 -13 35t-21 31q16 7 33 11.5t35 4.5q34 0 60 -12.5t43 -33.5t25.5 -49t8.5 -59q0 -12 -0.5 -37t-0.5 -52t-0.5 -52t-0.5 -37q0 -41 3.5 -66.5t11.5 -40.5t22 -21t35 -7q-3 -17 -3 -33q0 -13 3 -26q-20 -2 -36 -7.5t-28 -18t-18.5 -34t-6.5 -55.5q0 -23 4 -54l6 -62 l8 -62q3 -29 3 -48q0 -30 -10 -52.5t-26.5 -37.5t-39 -22.5t-47.5 -7.5q-17 0 -30 3z" />
<glyph unicode="~" horiz-adv-x="450" d="M346 415q18 -5 35.5 -6.5t35.5 -1.5q-5 -19 -13 -40.5t-21.5 -39.5t-33 -30t-46.5 -12q-32 0 -54.5 12.5t-42.5 44.5q-11 17 -26 25.5t-29 8.5q-31 0 -45 -18t-14 -61q-17 4 -32 5t-32 1q11 30 21 51.5t22.5 35.5t30 20.5t42.5 6.5q19 0 33.5 -4t27 -12t24 -19t23.5 -26 q14 -17 26.5 -23.5t23.5 -6.5q19 0 33.5 16t14.5 41q0 17 -4 32z" />
<glyph unicode="&#xa1;" horiz-adv-x="163" d="M123.003 0.0429688q-21.999 3 -44.9971 3q-22.999 0 -45.998 -3q7 56.9971 12 123.993q4.99902 66.9951 8.99902 138.491t7 143.491l5.99902 140.991h16.999h11.999q6 0 13 2v-269.983q0 -80.9951 3.99902 -148.491q4 -67.4961 11 -130.492zM90.0049 633.005 q-16.999 0 -28.498 12.499q-11.5 12.499 -11.5 29.498t11.5 28.498q11.499 11.5 28.498 11.5q17.999 0 29.498 -11.5q11.499 -11.499 11.499 -28.498t-11.499 -29.498t-29.498 -12.499z" />
<glyph unicode="&#xa2;" horiz-adv-x="391" d="M101 369q0 -61 9 -104.5t24 -71.5t33.5 -41t37.5 -13q10 0 23.5 5t25.5 18.5t20.5 37.5t8.5 62q0 26 -5 40q24 -6 44 -6q15 0 30 3q-13 -38 -20.5 -73.5t-18 -63.5t-29.5 -47t-55 -25q-2 -11 -2.5 -27t-0.5 -31q0 -24 2 -32q-5 1 -10 1.5t-10 0.5q-3 0 -7 -0.5t-9 -1.5 q3 24 3 48q0 19 -3 40q-41 4 -69 30t-45.5 65t-25.5 86t-8 94q0 45 5.5 90t21 82.5t42 64.5t68.5 37q0 23 1 45.5t3 45.5q18 -3 35 -3q-3 -42 -3 -83q46 0 69.5 -18t35 -47.5t16.5 -67.5t13 -78q-14 2 -26.5 3t-25.5 1h-11q-6 0 -11 -1q4 11 6 23t2 31q0 28 -7.5 47.5 t-19 31.5t-26 17t-27.5 5q-30 0 -50 -21.5t-32 -54t-17 -71.5t-5 -73z" />
<glyph unicode="&#xa3;" horiz-adv-x="408" d="M369 482q-7 1 -13.5 1.5t-14.5 0.5q-16 0 -41 -5q3 13 5 30t2 35q0 22 -2.5 42.5t-10 36.5t-21.5 26t-36 10q-23 0 -38 -15t-24 -39t-12.5 -55t-3.5 -62q0 -35 4 -65t10 -46h29q35 0 68.5 1t67.5 3q-6 -27 -6 -48v-9q0 -5 1 -10q-23 4 -49 5.5t-55 1.5h-24q-12 0 -25 -1 q2 -17 3.5 -32.5t1.5 -30.5q0 -57 -19.5 -107.5t-64.5 -101.5q54 5 109 5h19h11q60 0 120 10q-1 -5 -1.5 -10.5t-0.5 -10.5q0 -20 8 -44q-98 3 -194 3q-32 0 -65 -0.5t-67 -1.5q0 27 -10 50q22 13 40.5 36t31.5 52t20 62t7 66q0 26 -6 53q-32 -3 -51.5 -5.5t-27.5 -6.5 q0 17 -1 32.5t-5 32.5q18 0 37 1t42 3q-6 30 -10.5 65t-4.5 71t6.5 72t22.5 65t43 47.5t68 18.5q49 0 74 -25t36 -61t12.5 -76t4.5 -70z" />
<glyph unicode="&#xa5;" horiz-adv-x="408" d="M365 256q-2 -10 -3 -20t-1 -20q0 -8 0.5 -14t1.5 -12q-11 2 -21 2h-19q-22 0 -44 -0.5t-43 -1.5v-44q0 -70 6 -145q-7 1 -13 1.5t-13 0.5q-17 0 -45 -5q4 48 6.5 91t3.5 97l-119 -13q0 17 -0.5 34.5t-5.5 31.5q32 0 63 1t63 3v60q-32 -1 -63 -3l-63 -4l4 32q2 17 2 37 q54 -9 108 -9l-36 80l-41 86l-43 87l-43 82q37 10 66 30l63 -157q31 -78 66 -175q32 102 68 183l68 152q28 -23 63 -36q-51 -69 -92 -153t-67 -178q58 3 120 12q-1 -5 -1 -10v-10q0 -26 4 -46q-23 1 -45 1h-46h-38v-57z" />
<glyph unicode="&#xa6;" horiz-adv-x="171" d="M65 -99q0 79 -3.5 169.5t-7.5 184.5h57l7 -175q4 -86 4 -161q0 -23 -0.5 -46t-1.5 -46q-8 1 -14.5 1.5t-13.5 0.5t-14 -0.5t-14 -1.5q1 19 1 37v37zM52 763q19 -6 38 -6q5 0 9 0.5t9 1.5q-2 -20 -3 -48l-2 -57q-1 -30 -1 -58v-48q0 -78 3 -165h-56q-3 82 -3 159v50 q0 30 1 60l2 60q1 30 3 51z" />
<glyph unicode="&#xa8;" horiz-adv-x="392" d="M294 899q20 0 40 -13.5t20 -39.5q0 -25 -18 -44.5t-47 -19.5q-14 0 -24.5 5.5t-17.5 14t-10.5 18.5t-3.5 18q0 23 16.5 42t44.5 19zM154 850q0 -7 -3 -19t-10.5 -23t-20 -19.5t-30.5 -8.5q-24 0 -39.5 15t-15.5 38q0 25 15.5 45.5t42.5 20.5q7 0 17 -1.5t20 -7t17 -15 t7 -25.5z" />
<glyph unicode="&#xa9;" horiz-adv-x="657" d="M61 353q0 -102 27 -167.5t67 -103t85.5 -52t82.5 -14.5q33 0 78.5 13t86.5 49.5t70 102.5t29 172q0 81 -15 138t-39 94.5t-53.5 58.5t-59 31.5t-55.5 13t-42 2.5q-23 0 -52 -3.5t-58 -15.5t-56.5 -34.5t-48.5 -60t-34 -92.5t-13 -132zM20 322q0 76 13 149t46.5 129.5 t92.5 91t151 34.5q67 0 123 -19t96 -62.5t62.5 -115t22.5 -176.5q0 -86 -13.5 -147t-36.5 -102.5t-53 -66.5t-64 -38t-69 -17t-68 -4q-77 0 -134 27t-94.5 73.5t-56 109.5t-18.5 134zM505 428q-13 2 -27 2.5t-28 0.5h-10q-6 0 -11 -2q3 11 5 23t2 23q0 51 -28 80t-73 29 q-37 0 -64.5 -16.5t-46 -46t-28 -71.5t-9.5 -93q0 -48 8 -90t25 -73t42 -48.5t60 -17.5q21 0 41 5.5t35.5 20t25 38.5t9.5 61q0 8 -0.5 16.5t-3.5 19.5q25 -6 52 -6q6 0 12 0.5t12 1.5q-10 -21 -15 -43t-11 -45q-15 -57 -51 -84t-102 -27q-60 0 -98 27t-60 67.5t-30.5 87 t-8.5 86.5q0 46 8.5 94t31 87.5t62.5 65t103 25.5q57 0 89.5 -20t49.5 -49.5t23 -64t9 -64.5z" />
<glyph unicode="&#xaa;" horiz-adv-x="288" d="M231 351q0 -28 20 -51q-21 0 -43 -3q-5 4 -7 14t-2 16q-17 -33 -56 -33q-24 0 -42.5 12t-31 30.5t-18.5 42t-6 46.5q0 69 26.5 103.5t74.5 34.5q17 0 32.5 -9t24.5 -24q1 8 1 14v13q0 66 -13.5 89.5t-38.5 23.5q-24 0 -41.5 -13t-17.5 -52v-9q0 -4 1 -9q-7 2 -13 2h-12 h-16q5 33 14 54.5t21 34t27 17t33 4.5q21 0 37 -5.5t26 -22t15 -47t5 -80.5v-193zM199 480q-4 26 -20 39.5t-36 13.5q-17 0 -29.5 -9t-20.5 -23.5t-11.5 -33t-3.5 -37.5q0 -15 3 -33t11 -34t21.5 -26.5t34.5 -10.5q15 0 28.5 7.5t22.5 25.5v121z" />
<glyph unicode="&#xab;" horiz-adv-x="484" d="M200 561q14 -19 27 -30.5t27 -19.5q-50 -38 -91 -85l-80 -91q42 -39 89.5 -77t98.5 -64q-31 -23 -47 -60q-21 24 -46 49t-51 48t-51 42.5t-46 32.5q1 7 1 14v14q0 9 -2 13q20 16 44.5 40.5t48.5 53.5t45 60t33 60zM390 561q26 -34 54 -50q-50 -38 -91 -85l-80 -91 q42 -39 89.5 -77t98.5 -64q-13 -12 -24.5 -27t-22.5 -33q-21 24 -46 49t-51 48t-51 42.5t-46 32.5q1 5 1.5 10t0.5 10q0 10 -3 21q20 16 44.5 40.5t48.5 53.5t45 60t33 60z" />
<glyph unicode="&#xad;" horiz-adv-x="346" d="M288 361q-2 -15 -3 -31.5t-1 -36.5q-59 9 -115 9q-27 0 -56 -1.5t-58 -3.5q3 31 3 69q29 -5 57.5 -7t57.5 -2q28 0 57 1t58 3z" />
<glyph unicode="&#xae;" horiz-adv-x="431" d="M23 491q2 80 20.5 126.5t46 70t60 30t61.5 6.5q42 0 77 -12t60 -39t39 -71.5t14 -110.5q0 -82 -18 -128.5t-46 -70t-61.5 -29.5t-64.5 -6q-32 0 -65 10t-60.5 36t-45 71.5t-17.5 116.5zM210 287q19 0 47 7.5t53 29.5t43 61.5t18 103.5q0 72 -19.5 112.5t-46 60t-53.5 24 t-42 4.5q-20 0 -46.5 -6t-51 -27t-41.5 -61t-17 -107q0 -62 16 -101t40 -61.5t51 -31t49 -8.5zM290 411q9 -3 18 -3h6q4 0 8 1q-1 -11 -5 -22.5t-11 -21.5t-15.5 -16.5t-18.5 -6.5q-19 0 -28.5 8.5t-14.5 21t-7.5 27t-7.5 27.5t-15 22t-29 10q-2 -5 -2 -12v-13v-39 q0 -21 3 -36q-7 1 -13.5 1.5t-13.5 0.5q-6 0 -12 -0.5t-12 -1.5q10 23 12.5 96t2.5 185h78q43 0 66.5 -19.5t23.5 -61.5q0 -39 -17 -62.5t-62 -27.5q16 -3 20 -17.5t5 -30t3.5 -28.5t16.5 -13q7 0 13 7t8 25zM171 490q2 -1 31 -1t46 14t17 57q0 18 -7.5 27.5t-20 14t-30 5.5 t-37.5 1q1 -6 1.5 -18.5t0.5 -26.5q0 -20 -0.5 -40.5t-0.5 -32.5z" />
<glyph unicode="&#xaf;" horiz-adv-x="284" d="M255 893q-1 -8 -1.5 -14.5t-0.5 -14.5t0.5 -17t1.5 -17q-23 4 -44 5t-43 1q-34 0 -67.5 -2.5t-67.5 -5.5q1 8 1.5 16t0.5 17q0 7 -0.5 13.5t-1.5 14.5q20 -2 40 -3.5t41 -1.5q35 0 70 2.5t71 6.5z" />
<glyph unicode="&#xb0;" horiz-adv-x="308" d="M72 618q0 -26 8 -42t20 -25t25.5 -12.5t24.5 -3.5q9 0 23 3.5t26.5 12.5t21.5 25t9 42q0 30 -10 46.5t-23.5 25t-26.5 10.5t-20 2q-10 0 -23.5 -2.5t-25.5 -11.5t-20.5 -25.5t-8.5 -44.5zM25 620q0 45 12 70.5t30.5 38.5t41 16t42.5 3q57 0 91.5 -28t34.5 -100 q0 -45 -12 -70.5t-30 -38t-40.5 -16t-43.5 -3.5q-20 0 -42.5 5.5t-41 20t-30.5 39t-12 63.5z" />
<glyph unicode="&#xb1;" horiz-adv-x="450" d="M257 147q-17 3 -35 3h-14q-7 0 -15 -1q12 43 12 109v70h-45q-48 0 -82 -2.5t-54 -4.5q2 11 3.5 22t1.5 23q0 3 -0.5 6.5t-0.5 7.5q17 -5 43.5 -7.5t68.5 -2.5h65v43q0 48 -2.5 82t-4.5 54q18 -6 39 -6q5 0 10 0.5t10 1.5q-5 -17 -7.5 -43.5t-2.5 -68.5v-63h53 q82 0 126 10q-2 -10 -3 -19.5t-1 -18.5q0 -7 0.5 -13.5t1.5 -12.5q-44 12 -109 12h-68v-55q0 -82 10 -126zM160 57q-48 0 -82 -2.5t-54 -4.5q2 11 3.5 22t1.5 23q0 3 -0.5 6.5t-0.5 7.5q17 -5 43.5 -7.5t68.5 -2.5h160q82 0 126 10q-2 -10 -3 -19.5t-1 -18.5q0 -7 0.5 -13.5 t1.5 -12.5q-44 12 -109 12h-155z" />
<glyph unicode="&#xb2;" horiz-adv-x="228" d="M71 622q-3 1 -11 1q-13 0 -25 -3q0 35 7 57.5t18.5 35t26 17t29.5 4.5q35 0 52.5 -24t17.5 -59q0 -38 -18.5 -70.5t-48.5 -55.5q-15 -12 -26.5 -22.5t-19 -23.5t-11.5 -31.5t-4 -46.5q17 -2 32.5 -3t32.5 -1t35.5 1.5t37.5 6.5q-1 -3 -1 -7v-6q0 -13 3 -25q-17 3 -41 4 t-57 1q-23 0 -39.5 -1t-28.5 -3q-1 9 -1 17v16q0 36 6 59.5t16 39.5t23 27l27 22q34 26 44 50.5t10 56.5q0 23 -10 37.5t-32 14.5q-18 0 -32.5 -12.5t-14.5 -43.5q0 -12 3 -30z" />
<glyph unicode="&#xb3;" horiz-adv-x="205" d="M67 669q-17 10 -30 15q9 21 26 34.5t44 13.5q33 0 50 -24.5t17 -59.5q0 -12 -2 -24.5t-7.5 -24.5t-14.5 -22t-24 -16q18 -5 28 -14.5t15 -22t6 -26t1 -26.5q0 -21 -4.5 -40t-14 -34t-24 -23.5t-35.5 -8.5q-11 0 -23.5 3t-23.5 11.5t-18.5 23.5t-7.5 38q22 0 35 4 q-1 -5 -1.5 -8.5t-0.5 -7.5q0 -18 10 -29.5t30 -11.5t35.5 17.5t15.5 62.5q0 32 -15 55t-46 23q-2 0 -3.5 -0.5t-3.5 -0.5q3 13 3 30q34 0 48 22.5t14 51.5q0 54 -40 54q-14 0 -25 -6t-14 -29z" />
<glyph unicode="&#xb4;" horiz-adv-x="215" d="M149 940q9 -11 20 -20.5t23 -17.5q-40 -29 -72.5 -67.5t-58.5 -76.5q-8 13 -17.5 23.5t-19.5 18.5q40 31 69.5 64.5t55.5 75.5z" />
<glyph unicode="&#xb7;" horiz-adv-x="184" d="M90 285q-26 0 -44 18t-18 46q0 30 22.5 46t47.5 16q26 0 41.5 -17.5t15.5 -47.5q0 -24 -16 -42.5t-49 -18.5z" />
<glyph unicode="&#xb8;" horiz-adv-x="157" d="M78 -28q35 0 50 -15.5t15 -36.5q0 -28 -18 -48.5t-56 -20.5q-27 0 -52 7q4 15 4 33q0 4 -0.5 7.5t-0.5 7.5q25 -16 49 -16q15 0 25 8t10 21q0 12 -10.5 20t-28.5 8h-7q-4 0 -9 -1l3 73l26 -6v-41z" />
<glyph unicode="&#xb9;" horiz-adv-x="153" d="M36 695q-1 8 -1 15.5t-2 15.5q13 0 26.5 0.5t32.5 2.5q-2 -55 -4 -117.5t-2 -134.5q0 -27 0.5 -47t1.5 -33q11 0 20.5 0.5t17.5 1.5q-1 -2 -1 -8q0 -5 0.5 -10t1.5 -10q-2 1 -5 1h-7h-14q-21 0 -43.5 -1t-34.5 -3v10v9q0 4 -2 9q3 -1 17 -1h10q5 0 11 1q0 9 0.5 32 t1 53.5t1.5 64.5v65q1 31 1.5 54.5t0.5 33.5q-7 -1 -14 -1.5t-14 -2.5z" />
<glyph unicode="&#xba;" horiz-adv-x="304" d="M76 494q0 -53 8 -86.5t19.5 -52.5t24.5 -25.5t24 -6.5q9 0 22 6t25 24t20.5 51.5t8.5 89.5q0 63 -9 98t-21.5 52.5t-25.5 21t-20 3.5q-11 0 -24 -5t-24.5 -22.5t-19.5 -52.5t-8 -95zM152 699q24 0 44 -10t34.5 -34t22.5 -63.5t8 -97.5q0 -71 -10.5 -111.5t-26.5 -61 t-35 -25.5t-37 -5q-19 0 -38.5 8t-35 29t-25.5 57.5t-10 92.5q0 77 10.5 121t26.5 66.5t35 28t37 5.5z" />
<glyph unicode="&#xbb;" horiz-adv-x="484" d="M290 134q-14 19 -27 30.5t-27 19.5q50 38 91 85l80 91q-42 39 -89.5 77t-98.5 64q31 23 47 60q21 -24 46 -49t51 -48t51 -42.5t46 -32.5q-1 -7 -1 -14v-14q0 -9 2 -13q-20 -17 -44.5 -41.5t-48.5 -53t-45 -59.5t-33 -60zM100 134q-26 34 -54 50q50 38 91 85l80 91 q-42 39 -89.5 77t-98.5 64q13 12 24.5 27t22.5 33q21 -24 46 -49t51 -48t51 -42.5t46 -32.5q-1 -5 -1.5 -10t-0.5 -10q0 -11 3 -21q-20 -17 -44.5 -41.5t-48.5 -53t-45 -59.5t-33 -60z" />
<glyph unicode="&#xbc;" horiz-adv-x="727" d="M153 695q-1 8 -1 15.5t-2 15.5q13 0 26.5 0.5t32.5 2.5q-2 -55 -4 -117.5t-2 -134.5q0 -27 0.5 -47t1.5 -33q11 0 20.5 0.5t17.5 1.5q-1 -2 -1 -8q0 -5 0.5 -10t1.5 -10q-2 1 -5 1h-7h-14q-21 0 -43.5 -1t-34.5 -3v10v9q0 4 -2 9q3 -1 17 -1h10q5 0 11 1q0 9 0.5 32 t1 53.5t1.5 64.5v65q1 31 1.5 54.5t0.5 33.5q-7 -1 -14 -1.5t-14 -2.5zM353 378l199 236l116 136q8 -7 15.5 -12.5t15.5 -10.5q-43 -38 -123 -128l-200 -233l-202 -240q-77 -93 -113 -141l-32 25q45 42 125 133zM572 344q3 -1 16 -1q5 0 10.5 0.5t10.5 1.5 q-5 -48 -6.5 -98.5t-2.5 -101.5q24 0 39 3q-1 -3 -1 -12q0 -12 3 -21q-8 1 -16.5 1.5t-24.5 0.5q0 -15 -0.5 -29t-0.5 -28q0 -20 0.5 -40t1.5 -40q-3 1 -14 1q-12 0 -15 -1q2 21 2 41v40v55q-31 -2 -58.5 -2t-56.5 -3q-6 21 -16 33q27 15 45.5 46.5t18.5 62.5q0 24 -14 43 q17 3 32 13q10 -23 10 -50q0 -30 -11.5 -62t-43.5 -54q29 0 50 0.5t45 0.5l2 52q1 25 1 51q0 50 -6 97z" />
<glyph unicode="&#xbd;" horiz-adv-x="727" d="M153 695q-1 8 -1 15.5t-2 15.5q13 0 26.5 0.5t32.5 2.5q-2 -55 -4 -117.5t-2 -134.5q0 -27 0.5 -47t1.5 -33q11 0 20.5 0.5t17.5 1.5q-1 -2 -1 -8q0 -5 0.5 -10t1.5 -10q-2 1 -5 1h-7h-14q-21 0 -43.5 -1t-34.5 -3v10v9q0 4 -2 9q3 -1 17 -1h10q5 0 11 1q0 9 0.5 32 t1 53.5t1.5 64.5v65q1 31 1.5 54.5t0.5 33.5q-7 -1 -14 -1.5t-14 -2.5zM353 378l199 236l116 136q8 -7 15.5 -12.5t15.5 -10.5q-43 -38 -123 -128l-200 -233l-202 -240q-77 -93 -113 -141l-32 25q45 42 125 133zM499 240q-3 1 -11 1q-13 0 -25 -3q0 35 7 57.5t18.5 35t26 17 t29.5 4.5q35 0 52.5 -24t17.5 -59q0 -38 -18.5 -70.5t-48.5 -55.5q-15 -12 -26.5 -22.5t-19 -23.5t-11.5 -31.5t-4 -46.5q17 -2 32.5 -3t32.5 -1t35.5 1.5t37.5 6.5q-1 -3 -1 -7v-6q0 -13 3 -25q-17 3 -41 4t-57 1q-23 0 -39.5 -1t-28.5 -3q-1 9 -1 17v16q0 36 6 59.5 t16 39.5t23 27l27 22q34 26 44 50.5t10 56.5q0 23 -10 37.5t-32 14.5q-18 0 -32.5 -12.5t-14.5 -43.5q0 -12 3 -30z" />
<glyph unicode="&#xbe;" horiz-adv-x="727" d="M152 669q-17 10 -30 15q9 21 26 34.5t44 13.5q33 0 50 -24.5t17 -59.5q0 -12 -2 -24.5t-7.5 -24.5t-14.5 -22t-24 -16q18 -5 28 -14.5t15 -22t6 -26t1 -26.5q0 -21 -4.5 -40t-14 -34t-24 -23.5t-35.5 -8.5q-11 0 -23.5 3t-23.5 11.5t-18.5 23.5t-7.5 38q22 0 35 4 q-1 -5 -1.5 -8.5t-0.5 -7.5q0 -18 10 -29.5t30 -11.5t35.5 17.5t15.5 62.5q0 32 -15 55t-46 23q-2 0 -3.5 -0.5t-3.5 -0.5q3 13 3 30q34 0 48 22.5t14 51.5q0 54 -40 54q-14 0 -25 -6t-14 -29zM353 378l199 236l116 136q8 -7 15.5 -12.5t15.5 -10.5q-43 -38 -123 -128 l-200 -233l-202 -240q-77 -93 -113 -141l-32 25q45 42 125 133zM567 344q3 -1 16 -1q5 0 10.5 0.5t10.5 1.5q-5 -48 -6.5 -98.5t-2.5 -101.5q24 0 39 3q-1 -3 -1 -12q0 -12 3 -21q-8 1 -16.5 1.5t-24.5 0.5q0 -15 -0.5 -29t-0.5 -28q0 -20 0.5 -40t1.5 -40q-3 1 -14 1 q-12 0 -15 -1q2 21 2 41v40v55q-31 -2 -58.5 -2t-56.5 -3q-6 21 -16 33q27 15 45.5 46.5t18.5 62.5q0 24 -14 43q17 3 32 13q10 -23 10 -50q0 -30 -11.5 -62t-43.5 -54q29 0 50 0.5t45 0.5l2 52q1 25 1 51q0 50 -6 97z" />
<glyph unicode="&#xbf;" horiz-adv-x="373" d="M140.014 665.002q0 24.998 16.999 43.4971t48.9971 18.499q21.999 0 41.998 -15.499q19.998 -15.499 19.998 -48.4971q0 -27.998 -19.498 -44.4971q-19.499 -16.499 -42.498 -16.499q-28.998 0 -47.4971 15.499t-18.499 47.4971zM342.002 162.032 q0 -45.9971 -12.999 -80.9951q-13 -34.9971 -35.498 -57.9961q-22.499 -22.999 -53.4971 -34.998t-67.9961 -11.999q-62.9961 0 -101.493 35.998q-38.498 35.9971 -38.498 107.993q0 42.9971 11.499 74.9951q11.5 31.998 28.999 58.4971q17.499 26.498 37.4971 50.4961 q19.999 23.999 37.498 48.9971q17.499 24.999 28.998 54.9971t11.499 67.9961q0 28.998 -10.999 55.9961l67.9961 11.999q1 -7.99902 1 -16.999v-15.998q0 -50.9971 -11.499 -90.4951q-11.5 -39.4971 -28.999 -71.4951t-37.4971 -58.9971q-19.999 -26.998 -37.498 -52.9961 q-17.499 -25.999 -28.998 -53.4971t-11.499 -61.4961q0 -13.999 4.99902 -30.498q5 -16.499 15.999 -30.998q11 -14.499 28.498 -23.999q17.499 -9.49902 41.498 -9.49902q48.9971 0 71.4951 21.998q22.499 21.999 22.499 75.9961q0 19.998 -3 44.9971z" />
<glyph unicode="&#xc0;" d="M365 93q0 -50 36 -93q-20 0 -38.5 -1t-38.5 -5q-4 3 -7 10t-5 15t-3 16t-1 14q-29 -59 -103 -59q-44 0 -77.5 21.5t-55.5 55.5t-33 76.5t-11 84.5q0 124 49.5 187t133.5 63q30 0 58.5 -16t45.5 -43q1 13 1 25v24q0 60 -6.5 99.5t-18.5 62.5t-29.5 32.5t-39.5 9.5 t-41.5 -5t-34.5 -18.5t-23.5 -36t-8.5 -58.5q0 -8 0.5 -16t1.5 -17q-20 4 -37.5 4.5t-36.5 0.5q9 61 25.5 99.5t38.5 60.5t49.5 30.5t59.5 8.5q35 0 68.5 -15t53.5 -44q19 -29 23.5 -83.5t4.5 -139.5v-350zM307 328q-7 46 -36.5 71t-65.5 25q-32 0 -54 -16.5t-36.5 -42.5 t-21 -60t-6.5 -68q0 -28 5.5 -61t20 -61.5t39.5 -48t63 -19.5q27 0 51.5 14t40.5 46v221zM282 812q-9 -9 -17 -20.5t-14 -26.5l-79 67q-41 35 -80 64q28 17 42 38q27 -35 63.5 -68t84.5 -54z" />
<glyph unicode="&#xc1;" d="M365 93q0 -50 36 -93q-20 0 -38.5 -1t-38.5 -5q-4 3 -7 10t-5 15t-3 16t-1 14q-29 -59 -103 -59q-44 0 -77.5 21.5t-55.5 55.5t-33 76.5t-11 84.5q0 124 49.5 187t133.5 63q30 0 58.5 -16t45.5 -43q1 13 1 25v24q0 60 -6.5 99.5t-18.5 62.5t-29.5 32.5t-39.5 9.5 t-41.5 -5t-34.5 -18.5t-23.5 -36t-8.5 -58.5q0 -8 0.5 -16t1.5 -17q-20 4 -37.5 4.5t-36.5 0.5q9 61 25.5 99.5t38.5 60.5t49.5 30.5t59.5 8.5q35 0 68.5 -15t53.5 -44q19 -29 23.5 -83.5t4.5 -139.5v-350zM307 328q-7 46 -36.5 71t-65.5 25q-32 0 -54 -16.5t-36.5 -42.5 t-21 -60t-6.5 -68q0 -28 5.5 -61t20 -61.5t39.5 -48t63 -19.5q27 0 51.5 14t40.5 46v221zM288 940q9 -11 20 -20.5t23 -17.5q-40 -29 -72.5 -67.5t-58.5 -76.5q-8 13 -17.5 23.5t-19.5 18.5q40 31 69.5 64.5t55.5 75.5z" />
<glyph unicode="&#xc2;" d="M365 93q0 -50 36 -93q-20 0 -38.5 -1t-38.5 -5q-4 3 -7 10t-5 15t-3 16t-1 14q-29 -59 -103 -59q-44 0 -77.5 21.5t-55.5 55.5t-33 76.5t-11 84.5q0 124 49.5 187t133.5 63q30 0 58.5 -16t45.5 -43q1 13 1 25v24q0 60 -6.5 99.5t-18.5 62.5t-29.5 32.5t-39.5 9.5 t-41.5 -5t-34.5 -18.5t-23.5 -36t-8.5 -58.5q0 -8 0.5 -16t1.5 -17q-20 4 -37.5 4.5t-36.5 0.5q9 61 25.5 99.5t38.5 60.5t49.5 30.5t59.5 8.5q35 0 68.5 -15t53.5 -44q19 -29 23.5 -83.5t4.5 -139.5v-350zM307 328q-7 46 -36.5 71t-65.5 25q-32 0 -54 -16.5t-36.5 -42.5 t-21 -60t-6.5 -68q0 -28 5.5 -61t20 -61.5t39.5 -48t63 -19.5q27 0 51.5 14t40.5 46v221zM338 825q-13 -9 -25 -20.5t-23 -24.5q-17 30 -36.5 53.5t-39.5 55.5q-19 -30 -36.5 -53.5t-34.5 -51.5q-22 29 -46 44q32 26 58 56.5t56 75.5q35 -45 66 -78.5t61 -56.5z" />
<glyph unicode="&#xc3;" d="M365 93q0 -50 36 -93q-20 0 -38.5 -1t-38.5 -5q-4 3 -7 10t-5 15t-3 16t-1 14q-29 -59 -103 -59q-44 0 -77.5 21.5t-55.5 55.5t-33 76.5t-11 84.5q0 124 49.5 187t133.5 63q30 0 58.5 -16t45.5 -43q1 13 1 25v24q0 60 -6.5 99.5t-18.5 62.5t-29.5 32.5t-39.5 9.5 t-41.5 -5t-34.5 -18.5t-23.5 -36t-8.5 -58.5q0 -8 0.5 -16t1.5 -17q-20 4 -37.5 4.5t-36.5 0.5q9 61 25.5 99.5t38.5 60.5t49.5 30.5t59.5 8.5q35 0 68.5 -15t53.5 -44q19 -29 23.5 -83.5t4.5 -139.5v-350zM307 328q-7 46 -36.5 71t-65.5 25q-32 0 -54 -16.5t-36.5 -42.5 t-21 -60t-6.5 -68q0 -28 5.5 -61t20 -61.5t39.5 -48t63 -19.5q27 0 51.5 14t40.5 46v221zM325 926q14 -5 29.5 -6.5t32.5 -1.5q-4 -20 -11.5 -43t-19 -42.5t-28.5 -32t-40 -12.5q-28 0 -47.5 13.5t-37.5 47.5q-10 18 -22.5 27t-24.5 9q-27 0 -39.5 -19t-12.5 -65 q-14 3 -27.5 5t-28.5 2q10 31 19 53.5t20 37.5t25.5 22t36.5 7q33 0 52.5 -16t41.5 -48q12 -18 23 -25.5t21 -7.5q16 0 29 17.5t13 44.5q0 18 -4 33z" />
<glyph unicode="&#xc4;" d="M365 93q0 -50 36 -93q-20 0 -38.5 -1t-38.5 -5q-4 3 -7 10t-5 15t-3 16t-1 14q-29 -59 -103 -59q-44 0 -77.5 21.5t-55.5 55.5t-33 76.5t-11 84.5q0 124 49.5 187t133.5 63q30 0 58.5 -16t45.5 -43q1 13 1 25v24q0 60 -6.5 99.5t-18.5 62.5t-29.5 32.5t-39.5 9.5 t-41.5 -5t-34.5 -18.5t-23.5 -36t-8.5 -58.5q0 -8 0.5 -16t1.5 -17q-20 4 -37.5 4.5t-36.5 0.5q9 61 25.5 99.5t38.5 60.5t49.5 30.5t59.5 8.5q35 0 68.5 -15t53.5 -44q19 -29 23.5 -83.5t4.5 -139.5v-350zM307 328q-7 46 -36.5 71t-65.5 25q-32 0 -54 -16.5t-36.5 -42.5 t-21 -60t-6.5 -68q0 -28 5.5 -61t20 -61.5t39.5 -48t63 -19.5q27 0 51.5 14t40.5 46v221zM317 899q20 0 40 -13.5t20 -39.5q0 -25 -18 -44.5t-47 -19.5q-14 0 -24.5 5.5t-17.5 14t-10.5 18.5t-3.5 18q0 23 16.5 42t44.5 19zM177 850q0 -7 -3 -19t-10.5 -23t-20 -19.5 t-30.5 -8.5q-24 0 -39.5 15t-15.5 38q0 25 15.5 45.5t42.5 20.5q7 0 17 -1.5t20 -7t17 -15t7 -25.5z" />
<glyph unicode="&#xc5;" d="M365 93q0 -50 36 -93q-20 0 -38.5 -1t-38.5 -5q-4 3 -7 10t-5 15t-3 16t-1 14q-29 -59 -103 -59q-44 0 -77.5 21.5t-55.5 55.5t-33 76.5t-11 84.5q0 124 49.5 187t133.5 63q30 0 58.5 -16t45.5 -43q1 13 1 25v24q0 60 -6.5 99.5t-18.5 62.5t-29.5 32.5t-39.5 9.5 t-41.5 -5t-34.5 -18.5t-23.5 -36t-8.5 -58.5q0 -8 0.5 -16t1.5 -17q-20 4 -37.5 4.5t-36.5 0.5q9 61 25.5 99.5t38.5 60.5t49.5 30.5t59.5 8.5q35 0 68.5 -15t53.5 -44q19 -29 23.5 -83.5t4.5 -139.5v-350zM307 328q-7 46 -36.5 71t-65.5 25q-32 0 -54 -16.5t-36.5 -42.5 t-21 -60t-6.5 -68q0 -28 5.5 -61t20 -61.5t39.5 -48t63 -19.5q27 0 51.5 14t40.5 46v221zM280 859q0 23 -16 35t-40 12q-29 0 -46 -15t-17 -38q0 -19 12.5 -35.5t38.5 -16.5q32 0 50 18t18 40zM323 881q0 -25 -10 -47t-27 -38t-39.5 -25.5t-46.5 -9.5q-23 0 -39.5 7.5 t-27.5 19t-16.5 24.5t-5.5 25q0 23 10.5 44t28 36.5t39 24.5t43.5 9q43 0 67 -18t24 -52z" />
<glyph unicode="&#xc6;" horiz-adv-x="720" d="M678 373q-75 -6 -153 -6t-157 6q-1 -11 -1 -21v-20q0 -61 12.5 -112.5t34.5 -89t50.5 -58.5t61.5 -21q25 0 44.5 12.5t33.5 33t21.5 46.5t7.5 54q0 32 -8 72q23 -4 51 -4h10q5 0 10 1q-2 -62 -12 -112t-30 -85t-52.5 -54.5t-78.5 -19.5q-63 0 -103.5 33.5t-63.5 84.5 q-9 -23 -22.5 -45t-32 -39.5t-42.5 -28t-54 -10.5q-44 0 -77.5 21.5t-55.5 55.5t-33 76.5t-11 84.5q0 124 49.5 187t133.5 63q29 0 57 -15.5t45 -41.5q0 77 -5.5 126t-17 76.5t-28.5 38t-40 10.5q-22 0 -41.5 -5t-34.5 -18.5t-23.5 -36t-8.5 -58.5q0 -8 0.5 -16t1.5 -17 q-26 6 -51 6q-5 0 -11 -0.5t-12 -0.5q9 61 25.5 99.5t38.5 60.5t49.5 30.5t59.5 8.5q55 0 90 -32t46 -95q11 22 26 44.5t34.5 40t44.5 28.5t55 11q25 0 50 -9t45.5 -26.5t35 -43.5t19.5 -59q11 -51 13.5 -102.5t3.5 -108.5zM215 47q35 0 66 35.5t51 95.5q-9 33 -14 71.5 t-5 77.5q-3 23 -13.5 41t-25.5 30.5t-33 19t-36 6.5q-32 0 -54 -16.5t-36.5 -42.5t-21 -60t-6.5 -68q0 -28 5.5 -61t20 -61.5t39.5 -48t63 -19.5zM370 429q35 -2 70 -3t69 -1q28 0 55.5 1t53.5 3q1 9 1 18v18q0 53 -8.5 92t-23 64.5t-34 37.5t-41.5 12q-44 0 -71.5 -26.5 t-43.5 -64t-21.5 -79t-5.5 -72.5z" />
<glyph unicode="&#xc7;" horiz-adv-x="401" d="M372 453q-15 4 -40 4q-8 0 -15 -0.5t-15 -1.5q7 21 7 55q0 72 -25.5 115t-70.5 43q-35 0 -60 -23.5t-42 -65t-25 -99t-8 -124.5q0 -38 4 -91t16.5 -101.5t37.5 -82.5t67 -34q18 0 36.5 7t33 26t24 51.5t9.5 83.5q0 13 -1 25t-3 24q25 -6 49 -6h11q5 0 10 1 q-13 -66 -24 -116t-27 -83t-40 -50.5t-63 -19.5v-18q35 0 50 -15.5t15 -36.5q0 -28 -18 -48.5t-56 -20.5q-27 0 -52 7q4 15 4 33q0 4 -0.5 7.5t-0.5 7.5q25 -16 49 -16q15 0 25 8t10 21q0 12 -10.5 20t-28.5 8h-7q-4 0 -9 -1l2 45q-35 4 -61 23.5t-44.5 49t-30.5 66.5 t-19 75.5t-9.5 76t-2.5 68.5q0 36 2.5 78t10 83.5t20.5 80t34 68t51.5 47.5t72.5 18q52 0 82 -27.5t46 -69t21 -89t8 -86.5z" />
<glyph unicode="&#xc8;" horiz-adv-x="432" d="M82 429q70 -3 141 -3q54 0 107 3q1 9 1 18v18q0 53 -8.5 92t-23 64.5t-34 37.5t-41.5 12q-44 0 -71.5 -26.5t-43.5 -64t-21.5 -79t-5.5 -72.5zM390 373q-77 -3 -154 -3q-78 0 -156 3q-1 -11 -1 -21v-20q0 -61 12.5 -112.5t34.5 -89t50.5 -58.5t61.5 -21q25 0 44.5 12.5 t33.5 33t21.5 46.5t7.5 54q0 32 -8 72q11 -3 21 -4t20 -1q8 0 15 0.5t15 1.5q-2 -62 -12 -112t-30 -85t-52.5 -54.5t-78.5 -19.5q-43 0 -75 16.5t-55.5 43.5t-39 63t-24.5 75t-13 78t-4 74q0 81 7 150.5t28.5 119.5t60.5 78.5t103 28.5q25 0 49 -9t44.5 -26.5t35.5 -43.5 t21 -59q9 -51 12.5 -102.5t4.5 -108.5zM323 812q-9 -9 -17 -20.5t-14 -26.5l-79 67q-41 35 -80 64q28 17 42 38q27 -35 63.5 -68t84.5 -54z" />
<glyph unicode="&#xc9;" horiz-adv-x="432" d="M82 429q70 -3 141 -3q54 0 107 3q1 9 1 18v18q0 53 -8.5 92t-23 64.5t-34 37.5t-41.5 12q-44 0 -71.5 -26.5t-43.5 -64t-21.5 -79t-5.5 -72.5zM390 373q-77 -3 -154 -3q-78 0 -156 3q-1 -11 -1 -21v-20q0 -61 12.5 -112.5t34.5 -89t50.5 -58.5t61.5 -21q25 0 44.5 12.5 t33.5 33t21.5 46.5t7.5 54q0 32 -8 72q11 -3 21 -4t20 -1q8 0 15 0.5t15 1.5q-2 -62 -12 -112t-30 -85t-52.5 -54.5t-78.5 -19.5q-43 0 -75 16.5t-55.5 43.5t-39 63t-24.5 75t-13 78t-4 74q0 81 7 150.5t28.5 119.5t60.5 78.5t103 28.5q25 0 49 -9t44.5 -26.5t35.5 -43.5 t21 -59q9 -51 12.5 -102.5t4.5 -108.5zM279 940q9 -11 20 -20.5t23 -17.5q-40 -29 -72.5 -67.5t-58.5 -76.5q-8 13 -17.5 23.5t-19.5 18.5q40 31 69.5 64.5t55.5 75.5z" />
<glyph unicode="&#xca;" horiz-adv-x="432" d="M82 429q70 -3 141 -3q54 0 107 3q1 9 1 18v18q0 53 -8.5 92t-23 64.5t-34 37.5t-41.5 12q-44 0 -71.5 -26.5t-43.5 -64t-21.5 -79t-5.5 -72.5zM390 373q-77 -3 -154 -3q-78 0 -156 3q-1 -11 -1 -21v-20q0 -61 12.5 -112.5t34.5 -89t50.5 -58.5t61.5 -21q25 0 44.5 12.5 t33.5 33t21.5 46.5t7.5 54q0 32 -8 72q11 -3 21 -4t20 -1q8 0 15 0.5t15 1.5q-2 -62 -12 -112t-30 -85t-52.5 -54.5t-78.5 -19.5q-43 0 -75 16.5t-55.5 43.5t-39 63t-24.5 75t-13 78t-4 74q0 81 7 150.5t28.5 119.5t60.5 78.5t103 28.5q25 0 49 -9t44.5 -26.5t35.5 -43.5 t21 -59q9 -51 12.5 -102.5t4.5 -108.5zM338 825q-13 -9 -25 -20.5t-23 -24.5q-17 30 -36.5 53.5t-39.5 55.5q-19 -30 -36.5 -53.5t-34.5 -51.5q-22 29 -46 44q32 26 58 56.5t56 75.5q35 -45 66 -78.5t61 -56.5z" />
<glyph unicode="&#xcb;" horiz-adv-x="432" d="M82 429q70 -3 141 -3q54 0 107 3q1 9 1 18v18q0 53 -8.5 92t-23 64.5t-34 37.5t-41.5 12q-44 0 -71.5 -26.5t-43.5 -64t-21.5 -79t-5.5 -72.5zM390 373q-77 -3 -154 -3q-78 0 -156 3q-1 -11 -1 -21v-20q0 -61 12.5 -112.5t34.5 -89t50.5 -58.5t61.5 -21q25 0 44.5 12.5 t33.5 33t21.5 46.5t7.5 54q0 32 -8 72q11 -3 21 -4t20 -1q8 0 15 0.5t15 1.5q-2 -62 -12 -112t-30 -85t-52.5 -54.5t-78.5 -19.5q-43 0 -75 16.5t-55.5 43.5t-39 63t-24.5 75t-13 78t-4 74q0 81 7 150.5t28.5 119.5t60.5 78.5t103 28.5q25 0 49 -9t44.5 -26.5t35.5 -43.5 t21 -59q9 -51 12.5 -102.5t4.5 -108.5zM314 899q20 0 40 -13.5t20 -39.5q0 -25 -18 -44.5t-47 -19.5q-14 0 -24.5 5.5t-17.5 14t-10.5 18.5t-3.5 18q0 23 16.5 42t44.5 19zM174 850q0 -7 -3 -19t-10.5 -23t-20 -19.5t-30.5 -8.5q-24 0 -39.5 15t-15.5 38q0 25 15.5 45.5 t42.5 20.5q7 0 17 -1.5t20 -7t17 -15t7 -25.5z" />
<glyph unicode="&#xcc;" horiz-adv-x="139" d="M31 707q6 -2 12 -2h11h16h17h11q6 0 12 2q-5 -48 -7.5 -145t-2.5 -256q0 -222 12 -306q-11 1 -21 1.5t-21 0.5q-10 0 -20 -0.5t-21 -1.5q15 93 15 357q0 137 -3 221t-10 129zM136 812q-9 -9 -17 -20.5t-14 -26.5l-79 67q-41 35 -80 64q28 17 42 38q27 -35 63.5 -68 t84.5 -54z" />
<glyph unicode="&#xcd;" horiz-adv-x="139" d="M31 707q6 -2 12 -2h11h16h17h11q6 0 12 2q-5 -48 -7.5 -145t-2.5 -256q0 -222 12 -306q-11 1 -21 1.5t-21 0.5q-10 0 -20 -0.5t-21 -1.5q15 93 15 357q0 137 -3 221t-10 129zM142 940q9 -11 20 -20.5t23 -17.5q-40 -29 -72.5 -67.5t-58.5 -76.5q-8 13 -17.5 23.5 t-19.5 18.5q40 31 69.5 64.5t55.5 75.5z" />
<glyph unicode="&#xce;" horiz-adv-x="139" d="M31 707q6 -2 12 -2h11h16h17h11q6 0 12 2q-5 -48 -7.5 -145t-2.5 -256q0 -222 12 -306q-11 1 -21 1.5t-21 0.5q-10 0 -20 -0.5t-21 -1.5q15 93 15 357q0 137 -3 221t-10 129zM191 825q-13 -9 -25 -20.5t-23 -24.5q-17 30 -36.5 53.5t-39.5 55.5q-19 -30 -36.5 -53.5 t-34.5 -51.5q-22 29 -46 44q32 26 58 56.5t56 75.5q35 -45 66 -78.5t61 -56.5z" />
<glyph unicode="&#xcf;" horiz-adv-x="139" d="M31 707q6 -2 12 -2h11h16h17h11q6 0 12 2q-5 -48 -7.5 -145t-2.5 -256q0 -222 12 -306q-11 1 -21 1.5t-21 0.5q-10 0 -20 -0.5t-21 -1.5q15 93 15 357q0 137 -3 221t-10 129zM170 899q20 0 40 -13.5t20 -39.5q0 -25 -18 -44.5t-47 -19.5q-14 0 -24.5 5.5t-17.5 14 t-10.5 18.5t-3.5 18q0 23 16.5 42t44.5 19zM30 850q0 -7 -3 -19t-10.5 -23t-20 -19.5t-30.5 -8.5q-24 0 -39.5 15t-15.5 38q0 25 15.5 45.5t42.5 20.5q7 0 17 -1.5t20 -7t17 -15t7 -25.5z" />
<glyph unicode="&#xd0;" horiz-adv-x="423" d="M119 708q60 0 104.5 -15.5t75.5 -42.5t50.5 -64t30.5 -79t15 -88t4 -92q0 -59 -14.5 -118t-46 -106.5t-81.5 -76.5q-48 -28 -116 -28h-5l-89 1q1 29 1.5 57.5t0.5 57.5q0 48 -1 96.5t-3 99.5l-48 -3q2 10 3.5 19.5t1.5 20.5q0 7 -0.5 13.5t-1.5 14.5q11 -2 22 -3l21 -2 q-3 85 -5.5 168.5t-2.5 168.5zM230 371q-2 -17 -3 -33.5t-1 -34.5q-59 9 -115 9h-10q2 -52 3 -102.5t1 -101.5v-59q7 -2 15.5 -2.5t18.5 -0.5q37 0 75 15t68 48t49 86t19 129q0 35 -2.5 73t-9.5 74.5t-21 69t-37 57.5t-57 39.5t-81 14.5q-23 0 -50 -3q1 -75 3.5 -144 t4.5 -138h15q28 0 57 1t58 3z" />
<glyph unicode="&#xd1;" d="M316 710q19 -3 40 -3q8 0 16 0.5t16 1.5q-5 -40 -9 -104.5t-6.5 -140.5t-4 -156.5t-1.5 -151.5q0 -45 1 -84t3 -74q-14 0 -28.5 -0.5t-31.5 -4.5q-39 121 -70.5 209t-58.5 155t-50 119l-47 99q-4 -75 -6 -148t-2 -151q0 -137 6 -284q-8 1 -15 1.5t-15 0.5q-7 0 -14 -0.5 t-15 -1.5q8 78 11 183t3 238q0 146 -3 295q6 -2 12 -2h12h16h15h12q5 0 11 2q52 -183 106 -316.5t102 -237.5v220q0 89 -1 150.5t-2 103.5zM325 926q14 -5 29.5 -6.5t32.5 -1.5q-4 -20 -11.5 -43t-19 -42.5t-28.5 -32t-40 -12.5q-28 0 -47.5 13.5t-37.5 47.5 q-10 18 -22.5 27t-24.5 9q-27 0 -39.5 -19t-12.5 -65q-14 3 -27.5 5t-28.5 2q10 31 19 53.5t20 37.5t25.5 22t36.5 7q33 0 52.5 -16t41.5 -48q12 -18 23 -25.5t21 -7.5q16 0 29 17.5t13 44.5q0 18 -4 33z" />
<glyph unicode="&#xd2;" horiz-adv-x="444" d="M84 353q0 -97 14 -158t35 -95t44.5 -46.5t43.5 -12.5q17 0 41 11t45.5 44t37 94.5t15.5 162.5q0 76 -8 129.5t-20 88.5t-28 55t-31 29.5t-29 12t-23 2.5q-19 0 -43 -8.5t-45 -41t-35 -95.5t-14 -172zM221 726q44 0 80.5 -18.5t63 -62t41 -115t14.5 -177.5 q0 -86 -8.5 -146.5t-23.5 -101.5t-35 -65t-42 -36.5t-45 -16t-45 -3.5q-34 0 -69 14.5t-63.5 52.5t-46.5 104t-18 168q0 93 8.5 159t23.5 111t34.5 71.5t41.5 40t45 17.5t44 4zM328 812q-9 -9 -17 -20.5t-14 -26.5l-79 67q-41 35 -80 64q28 17 42 38q27 -35 63.5 -68 t84.5 -54z" />
<glyph unicode="&#xd3;" horiz-adv-x="444" d="M84 353q0 -97 14 -158t35 -95t44.5 -46.5t43.5 -12.5q17 0 41 11t45.5 44t37 94.5t15.5 162.5q0 76 -8 129.5t-20 88.5t-28 55t-31 29.5t-29 12t-23 2.5q-19 0 -43 -8.5t-45 -41t-35 -95.5t-14 -172zM221 726q44 0 80.5 -18.5t63 -62t41 -115t14.5 -177.5 q0 -86 -8.5 -146.5t-23.5 -101.5t-35 -65t-42 -36.5t-45 -16t-45 -3.5q-34 0 -69 14.5t-63.5 52.5t-46.5 104t-18 168q0 93 8.5 159t23.5 111t34.5 71.5t41.5 40t45 17.5t44 4zM293 940q9 -11 20 -20.5t23 -17.5q-40 -29 -72.5 -67.5t-58.5 -76.5q-8 13 -17.5 23.5 t-19.5 18.5q40 31 69.5 64.5t55.5 75.5z" />
<glyph unicode="&#xd4;" horiz-adv-x="444" d="M84 353q0 -97 14 -158t35 -95t44.5 -46.5t43.5 -12.5q17 0 41 11t45.5 44t37 94.5t15.5 162.5q0 76 -8 129.5t-20 88.5t-28 55t-31 29.5t-29 12t-23 2.5q-19 0 -43 -8.5t-45 -41t-35 -95.5t-14 -172zM221 726q44 0 80.5 -18.5t63 -62t41 -115t14.5 -177.5 q0 -86 -8.5 -146.5t-23.5 -101.5t-35 -65t-42 -36.5t-45 -16t-45 -3.5q-34 0 -69 14.5t-63.5 52.5t-46.5 104t-18 168q0 93 8.5 159t23.5 111t34.5 71.5t41.5 40t45 17.5t44 4zM342 825q-13 -9 -25 -20.5t-23 -24.5q-17 30 -36.5 53.5t-39.5 55.5q-19 -30 -36.5 -53.5 t-34.5 -51.5q-22 29 -46 44q32 26 58 56.5t56 75.5q35 -45 66 -78.5t61 -56.5z" />
<glyph unicode="&#xd5;" horiz-adv-x="444" d="M84 353q0 -97 14 -158t35 -95t44.5 -46.5t43.5 -12.5q17 0 41 11t45.5 44t37 94.5t15.5 162.5q0 76 -8 129.5t-20 88.5t-28 55t-31 29.5t-29 12t-23 2.5q-19 0 -43 -8.5t-45 -41t-35 -95.5t-14 -172zM221 726q44 0 80.5 -18.5t63 -62t41 -115t14.5 -177.5 q0 -86 -8.5 -146.5t-23.5 -101.5t-35 -65t-42 -36.5t-45 -16t-45 -3.5q-34 0 -69 14.5t-63.5 52.5t-46.5 104t-18 168q0 93 8.5 159t23.5 111t34.5 71.5t41.5 40t45 17.5t44 4zM329 926q14 -5 29.5 -6.5t32.5 -1.5q-4 -20 -11.5 -43t-19 -42.5t-28.5 -32t-40 -12.5 q-28 0 -47.5 13.5t-37.5 47.5q-10 18 -22.5 27t-24.5 9q-27 0 -39.5 -19t-12.5 -65q-14 3 -27.5 5t-28.5 2q10 31 19 53.5t20 37.5t25.5 22t36.5 7q33 0 52.5 -16t41.5 -48q12 -18 23 -25.5t21 -7.5q16 0 29 17.5t13 44.5q0 18 -4 33z" />
<glyph unicode="&#xd6;" horiz-adv-x="444" d="M84 353q0 -97 14 -158t35 -95t44.5 -46.5t43.5 -12.5q17 0 41 11t45.5 44t37 94.5t15.5 162.5q0 76 -8 129.5t-20 88.5t-28 55t-31 29.5t-29 12t-23 2.5q-19 0 -43 -8.5t-45 -41t-35 -95.5t-14 -172zM221 726q44 0 80.5 -18.5t63 -62t41 -115t14.5 -177.5 q0 -86 -8.5 -146.5t-23.5 -101.5t-35 -65t-42 -36.5t-45 -16t-45 -3.5q-34 0 -69 14.5t-63.5 52.5t-46.5 104t-18 168q0 93 8.5 159t23.5 111t34.5 71.5t41.5 40t45 17.5t44 4zM321 899q20 0 40 -13.5t20 -39.5q0 -25 -18 -44.5t-47 -19.5q-14 0 -24.5 5.5t-17.5 14 t-10.5 18.5t-3.5 18q0 23 16.5 42t44.5 19zM181 850q0 -7 -3 -19t-10.5 -23t-20 -19.5t-30.5 -8.5q-24 0 -39.5 15t-15.5 38q0 25 15.5 45.5t42.5 20.5q7 0 17 -1.5t20 -7t17 -15t7 -25.5z" />
<glyph unicode="&#xd7;" horiz-adv-x="450" d="M390 228q-8 -5 -14.5 -10.5t-12.5 -11.5l-20 -21q-11 21 -28.5 41t-40.5 44l-49 50l-32 -32q-34 -34 -56.5 -60t-34.5 -41q-8 8 -13.5 17.5t-14.5 17.5l-11 9q16 9 36.5 26t49.5 46l46 46l-30 31q-33 35 -60 56.5t-41 34.5l16 10q8 5 16 13l12 16q9 -16 26 -36.5 t46 -49.5l45 -45l37 38l50 52q21 23 33 44q5 -9 10.5 -16.5t13.5 -13.5l19 -17q-21 -11 -41.5 -28.5t-43.5 -40.5l-48 -48l39 -38l52 -49q23 -22 44 -34z" />
<glyph unicode="&#xd8;" horiz-adv-x="444" d="M310 703q7 14 13 29.5t11 33.5q27 -16 66 -19l-8 -17l-12 -24l-13 -26q-6 -13 -10 -23q29 -43 46 -116.5t17 -187.5q0 -86 -8.5 -147t-23.5 -102.5t-35 -66.5t-42 -38t-45 -17t-45 -4q-23 0 -47.5 7t-47.5 24q-16 -25 -22 -59q-15 7 -30.5 12t-34.5 8l21 41q13 26 21 48 q-26 40 -41.5 103.5t-15.5 160.5q0 93 8.5 159t23.5 111t34.5 71.5t41.5 40t45 17.5t44 4q48 0 89 -23zM360 353q0 85 -10 141t-24 91l-28 -72l-32 -89l-34 -98l-32 -96l-30 -86l-22 -67q18 -24 37.5 -33t35.5 -9q17 0 41 12t45.5 46.5t37 96.5t15.5 163zM84 353 q0 -72 7.5 -123.5t20.5 -87.5q13 32 28 75l33 91l33 96l32 95l29 83l22 61q-20 19 -38.5 23t-29.5 4q-19 0 -42 -8.5t-44 -41t-35.5 -95.5t-15.5 -172z" />
<glyph unicode="&#xd9;" horiz-adv-x="395" d="M304 708q18 -3 36 -3h15q7 0 15 1q-5 -34 -6.5 -71.5t-1.5 -82.5q0 -31 0.5 -66t0.5 -75q0 -95 -0.5 -163t-5 -115t-14.5 -75.5t-28.5 -43.5t-48.5 -20t-73 -5q-25 0 -46.5 3.5t-39 18t-31 43t-22.5 78.5t-14 125.5t-5 183.5q0 34 1 64t1 58q0 81 -9 146q18 -3 35 -3 t34 3q-5 -45 -8 -100t-3 -127q0 -142 3.5 -228t16.5 -132.5t38.5 -61.5t69.5 -15q35 0 54.5 12t29 37.5t11.5 66.5t2 98q0 157 -2.5 267t-4.5 182zM262 812q-9 -9 -17 -20.5t-14 -26.5l-79 67q-41 35 -80 64q28 17 42 38q27 -35 63.5 -68t84.5 -54z" />
<glyph unicode="&#xda;" horiz-adv-x="395" d="M304 708q18 -3 36 -3h15q7 0 15 1q-5 -34 -6.5 -71.5t-1.5 -82.5q0 -31 0.5 -66t0.5 -75q0 -95 -0.5 -163t-5 -115t-14.5 -75.5t-28.5 -43.5t-48.5 -20t-73 -5q-25 0 -46.5 3.5t-39 18t-31 43t-22.5 78.5t-14 125.5t-5 183.5q0 34 1 64t1 58q0 81 -9 146q18 -3 35 -3 t34 3q-5 -45 -8 -100t-3 -127q0 -142 3.5 -228t16.5 -132.5t38.5 -61.5t69.5 -15q35 0 54.5 12t29 37.5t11.5 66.5t2 98q0 157 -2.5 267t-4.5 182zM268 940q9 -11 20 -20.5t23 -17.5q-40 -29 -72.5 -67.5t-58.5 -76.5q-8 13 -17.5 23.5t-19.5 18.5q40 31 69.5 64.5 t55.5 75.5z" />
<glyph unicode="&#xdb;" horiz-adv-x="395" d="M304 708q18 -3 36 -3h15q7 0 15 1q-5 -34 -6.5 -71.5t-1.5 -82.5q0 -31 0.5 -66t0.5 -75q0 -95 -0.5 -163t-5 -115t-14.5 -75.5t-28.5 -43.5t-48.5 -20t-73 -5q-25 0 -46.5 3.5t-39 18t-31 43t-22.5 78.5t-14 125.5t-5 183.5q0 34 1 64t1 58q0 81 -9 146q18 -3 35 -3 t34 3q-5 -45 -8 -100t-3 -127q0 -142 3.5 -228t16.5 -132.5t38.5 -61.5t69.5 -15q35 0 54.5 12t29 37.5t11.5 66.5t2 98q0 157 -2.5 267t-4.5 182zM318 825q-13 -9 -25 -20.5t-23 -24.5q-17 30 -36.5 53.5t-39.5 55.5q-19 -30 -36.5 -53.5t-34.5 -51.5q-22 29 -46 44 q32 26 58 56.5t56 75.5q35 -45 66 -78.5t61 -56.5z" />
<glyph unicode="&#xdc;" horiz-adv-x="395" d="M304 708q18 -3 36 -3h15q7 0 15 1q-5 -34 -6.5 -71.5t-1.5 -82.5q0 -31 0.5 -66t0.5 -75q0 -95 -0.5 -163t-5 -115t-14.5 -75.5t-28.5 -43.5t-48.5 -20t-73 -5q-25 0 -46.5 3.5t-39 18t-31 43t-22.5 78.5t-14 125.5t-5 183.5q0 34 1 64t1 58q0 81 -9 146q18 -3 35 -3 t34 3q-5 -45 -8 -100t-3 -127q0 -142 3.5 -228t16.5 -132.5t38.5 -61.5t69.5 -15q35 0 54.5 12t29 37.5t11.5 66.5t2 98q0 157 -2.5 267t-4.5 182zM297 899q20 0 40 -13.5t20 -39.5q0 -25 -18 -44.5t-47 -19.5q-14 0 -24.5 5.5t-17.5 14t-10.5 18.5t-3.5 18q0 23 16.5 42 t44.5 19zM157 850q0 -7 -3 -19t-10.5 -23t-20 -19.5t-30.5 -8.5q-24 0 -39.5 15t-15.5 38q0 25 15.5 45.5t42.5 20.5q7 0 17 -1.5t20 -7t17 -15t7 -25.5z" />
<glyph unicode="&#xdd;" horiz-adv-x="408" d="M338 724q30 -23 63 -36q-54 -75 -96.5 -164.5t-68.5 -189.5v-188q0 -71 6 -146q-8 0 -16 0.5t-16 0.5q-20 0 -39 -3q3 31 5 59t3.5 57.5t2 62.5t0.5 74v77l-38 84l-43 94l-47 96l-47 89q34 10 66 30l63 -157q31 -78 66 -175q32 102 68 183zM243 940q9 -11 20 -20.5 t23 -17.5q-40 -29 -72.5 -67.5t-58.5 -76.5q-8 13 -17.5 23.5t-19.5 18.5q40 31 69.5 64.5t55.5 75.5z" />
<glyph unicode="&#xde;" horiz-adv-x="381" d="M31 707q6 -2 12 -2h11h16h17h11q6 0 12 2q-2 -25 -4.5 -64.5t-3.5 -90.5q6 1 13 1.5t14 0.5q54 0 96.5 -7.5t72 -28.5t45.5 -59.5t16 -99.5q0 -134 -55.5 -193.5t-149.5 -59.5q-13 0 -25.5 1.5t-26.5 3.5q2 -36 4.5 -63t5.5 -47q-10 0 -19.5 0.5t-19.5 0.5q-25 0 -49 -3 q6 23 10 57t6 82.5t3 112.5t1 147q0 114 -3 189t-10 120zM301 331q0 45 -5 77t-21 52.5t-45 30t-77 9.5q-24 0 -52 -3q0 -23 1 -91.5t1 -168.5v-35q0 -17 -2 -34q31 -6 58 -6q34 0 60.5 8.5t44.5 28.5t27.5 52.5t9.5 79.5z" />
<glyph unicode="&#xdf;" horiz-adv-x="706" d="M318 490l-24 4q-10 1 -20 1q-7 0 -13.5 -0.5t-12.5 -1.5q16 36 16 74q0 54 -21 75t-63 21q-86 0 -86 -107q0 -22 3.5 -43t16 -43.5t36.5 -47.5t65 -56q36 -28 59 -52.5t35.5 -49t17 -50t4.5 -54.5q0 -93 -39.5 -133.5t-113.5 -40.5q-79 0 -114.5 48.5t-35.5 151.5v13 q0 6 1 14q5 -1 10 -1h10q28 0 51 4q-12 -54 -12 -89q0 -24 8 -40t20.5 -25.5t28.5 -13.5t32 -4q18 0 35.5 7t31.5 21t22.5 35.5t8.5 51.5q0 22 -4.5 43t-17.5 43t-36.5 46t-60.5 53q-35 27 -58 54t-36.5 54t-19 55.5t-5.5 58.5q0 46 11.5 76t30 47.5t43 24.5t51.5 7 q47 0 76 -12.5t44.5 -37t21 -60.5t5.5 -82v-19q0 -9 -2 -20zM671 490l-24 4q-10 1 -20 1q-7 0 -13.5 -0.5t-12.5 -1.5q16 36 16 74q0 54 -21 75t-63 21q-86 0 -86 -107q0 -22 3.5 -43t16 -43.5t36.5 -47.5t65 -56q36 -28 59 -52.5t35.5 -49t17 -50t4.5 -54.5 q0 -93 -39.5 -133.5t-113.5 -40.5q-79 0 -114.5 48.5t-35.5 151.5v13q0 6 1 14q5 -1 10 -1h10q28 0 51 4q-12 -54 -12 -89q0 -24 8 -40t20.5 -25.5t28.5 -13.5t32 -4q18 0 35.5 7t31.5 21t22.5 35.5t8.5 51.5q0 22 -4.5 43t-17.5 43t-36.5 46t-60.5 53q-35 27 -58 54 t-36.5 54t-19 55.5t-5.5 58.5q0 46 11.5 76t30 47.5t43 24.5t51.5 7q47 0 76 -12.5t44.5 -37t21 -60.5t5.5 -82v-19q0 -9 -2 -20z" />
<glyph unicode="&#xe0;" d="M365 93q0 -50 36 -93q-20 0 -38.5 -1t-38.5 -5q-4 3 -7 10t-5 15t-3 16t-1 14q-29 -59 -103 -59q-44 0 -77.5 21.5t-55.5 55.5t-33 76.5t-11 84.5q0 124 49.5 187t133.5 63q30 0 58.5 -16t45.5 -43q1 13 1 25v24q0 60 -6.5 99.5t-18.5 62.5t-29.5 32.5t-39.5 9.5 t-41.5 -5t-34.5 -18.5t-23.5 -36t-8.5 -58.5q0 -8 0.5 -16t1.5 -17q-20 4 -37.5 4.5t-36.5 0.5q9 61 25.5 99.5t38.5 60.5t49.5 30.5t59.5 8.5q35 0 68.5 -15t53.5 -44q19 -29 23.5 -83.5t4.5 -139.5v-350zM307 328q-7 46 -36.5 71t-65.5 25q-32 0 -54 -16.5t-36.5 -42.5 t-21 -60t-6.5 -68q0 -28 5.5 -61t20 -61.5t39.5 -48t63 -19.5q27 0 51.5 14t40.5 46v221zM282 812q-9 -9 -17 -20.5t-14 -26.5l-79 67q-41 35 -80 64q28 17 42 38q27 -35 63.5 -68t84.5 -54z" />
<glyph unicode="&#xe1;" d="M365 93q0 -50 36 -93q-20 0 -38.5 -1t-38.5 -5q-4 3 -7 10t-5 15t-3 16t-1 14q-29 -59 -103 -59q-44 0 -77.5 21.5t-55.5 55.5t-33 76.5t-11 84.5q0 124 49.5 187t133.5 63q30 0 58.5 -16t45.5 -43q1 13 1 25v24q0 60 -6.5 99.5t-18.5 62.5t-29.5 32.5t-39.5 9.5 t-41.5 -5t-34.5 -18.5t-23.5 -36t-8.5 -58.5q0 -8 0.5 -16t1.5 -17q-20 4 -37.5 4.5t-36.5 0.5q9 61 25.5 99.5t38.5 60.5t49.5 30.5t59.5 8.5q35 0 68.5 -15t53.5 -44q19 -29 23.5 -83.5t4.5 -139.5v-350zM307 328q-7 46 -36.5 71t-65.5 25q-32 0 -54 -16.5t-36.5 -42.5 t-21 -60t-6.5 -68q0 -28 5.5 -61t20 -61.5t39.5 -48t63 -19.5q27 0 51.5 14t40.5 46v221zM288 940q9 -11 20 -20.5t23 -17.5q-40 -29 -72.5 -67.5t-58.5 -76.5q-8 13 -17.5 23.5t-19.5 18.5q40 31 69.5 64.5t55.5 75.5z" />
<glyph unicode="&#xe2;" d="M365 93q0 -50 36 -93q-20 0 -38.5 -1t-38.5 -5q-4 3 -7 10t-5 15t-3 16t-1 14q-29 -59 -103 -59q-44 0 -77.5 21.5t-55.5 55.5t-33 76.5t-11 84.5q0 124 49.5 187t133.5 63q30 0 58.5 -16t45.5 -43q1 13 1 25v24q0 60 -6.5 99.5t-18.5 62.5t-29.5 32.5t-39.5 9.5 t-41.5 -5t-34.5 -18.5t-23.5 -36t-8.5 -58.5q0 -8 0.5 -16t1.5 -17q-20 4 -37.5 4.5t-36.5 0.5q9 61 25.5 99.5t38.5 60.5t49.5 30.5t59.5 8.5q35 0 68.5 -15t53.5 -44q19 -29 23.5 -83.5t4.5 -139.5v-350zM307 328q-7 46 -36.5 71t-65.5 25q-32 0 -54 -16.5t-36.5 -42.5 t-21 -60t-6.5 -68q0 -28 5.5 -61t20 -61.5t39.5 -48t63 -19.5q27 0 51.5 14t40.5 46v221zM338 825q-13 -9 -25 -20.5t-23 -24.5q-17 30 -36.5 53.5t-39.5 55.5q-19 -30 -36.5 -53.5t-34.5 -51.5q-22 29 -46 44q32 26 58 56.5t56 75.5q35 -45 66 -78.5t61 -56.5z" />
<glyph unicode="&#xe3;" d="M365 93q0 -50 36 -93q-20 0 -38.5 -1t-38.5 -5q-4 3 -7 10t-5 15t-3 16t-1 14q-29 -59 -103 -59q-44 0 -77.5 21.5t-55.5 55.5t-33 76.5t-11 84.5q0 124 49.5 187t133.5 63q30 0 58.5 -16t45.5 -43q1 13 1 25v24q0 60 -6.5 99.5t-18.5 62.5t-29.5 32.5t-39.5 9.5 t-41.5 -5t-34.5 -18.5t-23.5 -36t-8.5 -58.5q0 -8 0.5 -16t1.5 -17q-20 4 -37.5 4.5t-36.5 0.5q9 61 25.5 99.5t38.5 60.5t49.5 30.5t59.5 8.5q35 0 68.5 -15t53.5 -44q19 -29 23.5 -83.5t4.5 -139.5v-350zM307 328q-7 46 -36.5 71t-65.5 25q-32 0 -54 -16.5t-36.5 -42.5 t-21 -60t-6.5 -68q0 -28 5.5 -61t20 -61.5t39.5 -48t63 -19.5q27 0 51.5 14t40.5 46v221zM325 926q14 -5 29.5 -6.5t32.5 -1.5q-4 -20 -11.5 -43t-19 -42.5t-28.5 -32t-40 -12.5q-28 0 -47.5 13.5t-37.5 47.5q-10 18 -22.5 27t-24.5 9q-27 0 -39.5 -19t-12.5 -65 q-14 3 -27.5 5t-28.5 2q10 31 19 53.5t20 37.5t25.5 22t36.5 7q33 0 52.5 -16t41.5 -48q12 -18 23 -25.5t21 -7.5q16 0 29 17.5t13 44.5q0 18 -4 33z" />
<glyph unicode="&#xe4;" d="M365 93q0 -50 36 -93q-20 0 -38.5 -1t-38.5 -5q-4 3 -7 10t-5 15t-3 16t-1 14q-29 -59 -103 -59q-44 0 -77.5 21.5t-55.5 55.5t-33 76.5t-11 84.5q0 124 49.5 187t133.5 63q30 0 58.5 -16t45.5 -43q1 13 1 25v24q0 60 -6.5 99.5t-18.5 62.5t-29.5 32.5t-39.5 9.5 t-41.5 -5t-34.5 -18.5t-23.5 -36t-8.5 -58.5q0 -8 0.5 -16t1.5 -17q-20 4 -37.5 4.5t-36.5 0.5q9 61 25.5 99.5t38.5 60.5t49.5 30.5t59.5 8.5q35 0 68.5 -15t53.5 -44q19 -29 23.5 -83.5t4.5 -139.5v-350zM307 328q-7 46 -36.5 71t-65.5 25q-32 0 -54 -16.5t-36.5 -42.5 t-21 -60t-6.5 -68q0 -28 5.5 -61t20 -61.5t39.5 -48t63 -19.5q27 0 51.5 14t40.5 46v221zM317 899q20 0 40 -13.5t20 -39.5q0 -25 -18 -44.5t-47 -19.5q-14 0 -24.5 5.5t-17.5 14t-10.5 18.5t-3.5 18q0 23 16.5 42t44.5 19zM177 850q0 -7 -3 -19t-10.5 -23t-20 -19.5 t-30.5 -8.5q-24 0 -39.5 15t-15.5 38q0 25 15.5 45.5t42.5 20.5q7 0 17 -1.5t20 -7t17 -15t7 -25.5z" />
<glyph unicode="&#xe5;" d="M365 93q0 -50 36 -93q-20 0 -38.5 -1t-38.5 -5q-4 3 -7 10t-5 15t-3 16t-1 14q-29 -59 -103 -59q-44 0 -77.5 21.5t-55.5 55.5t-33 76.5t-11 84.5q0 124 49.5 187t133.5 63q30 0 58.5 -16t45.5 -43q1 13 1 25v24q0 60 -6.5 99.5t-18.5 62.5t-29.5 32.5t-39.5 9.5 t-41.5 -5t-34.5 -18.5t-23.5 -36t-8.5 -58.5q0 -8 0.5 -16t1.5 -17q-20 4 -37.5 4.5t-36.5 0.5q9 61 25.5 99.5t38.5 60.5t49.5 30.5t59.5 8.5q35 0 68.5 -15t53.5 -44q19 -29 23.5 -83.5t4.5 -139.5v-350zM307 328q-7 46 -36.5 71t-65.5 25q-32 0 -54 -16.5t-36.5 -42.5 t-21 -60t-6.5 -68q0 -28 5.5 -61t20 -61.5t39.5 -48t63 -19.5q27 0 51.5 14t40.5 46v221zM280 859q0 23 -16 35t-40 12q-29 0 -46 -15t-17 -38q0 -19 12.5 -35.5t38.5 -16.5q32 0 50 18t18 40zM323 881q0 -25 -10 -47t-27 -38t-39.5 -25.5t-46.5 -9.5q-23 0 -39.5 7.5 t-27.5 19t-16.5 24.5t-5.5 25q0 23 10.5 44t28 36.5t39 24.5t43.5 9q43 0 67 -18t24 -52z" />
<glyph unicode="&#xe6;" horiz-adv-x="720" d="M678 373q-75 -6 -153 -6t-157 6q-1 -11 -1 -21v-20q0 -61 12.5 -112.5t34.5 -89t50.5 -58.5t61.5 -21q25 0 44.5 12.5t33.5 33t21.5 46.5t7.5 54q0 32 -8 72q23 -4 51 -4h10q5 0 10 1q-2 -62 -12 -112t-30 -85t-52.5 -54.5t-78.5 -19.5q-63 0 -103.5 33.5t-63.5 84.5 q-9 -23 -22.5 -45t-32 -39.5t-42.5 -28t-54 -10.5q-44 0 -77.5 21.5t-55.5 55.5t-33 76.5t-11 84.5q0 124 49.5 187t133.5 63q29 0 57 -15.5t45 -41.5q0 77 -5.5 126t-17 76.5t-28.5 38t-40 10.5q-22 0 -41.5 -5t-34.5 -18.5t-23.5 -36t-8.5 -58.5q0 -8 0.5 -16t1.5 -17 q-26 6 -51 6q-5 0 -11 -0.5t-12 -0.5q9 61 25.5 99.5t38.5 60.5t49.5 30.5t59.5 8.5q55 0 90 -32t46 -95q11 22 26 44.5t34.5 40t44.5 28.5t55 11q25 0 50 -9t45.5 -26.5t35 -43.5t19.5 -59q11 -51 13.5 -102.5t3.5 -108.5zM215 47q35 0 66 35.5t51 95.5q-9 33 -14 71.5 t-5 77.5q-3 23 -13.5 41t-25.5 30.5t-33 19t-36 6.5q-32 0 -54 -16.5t-36.5 -42.5t-21 -60t-6.5 -68q0 -28 5.5 -61t20 -61.5t39.5 -48t63 -19.5zM370 429q35 -2 70 -3t69 -1q28 0 55.5 1t53.5 3q1 9 1 18v18q0 53 -8.5 92t-23 64.5t-34 37.5t-41.5 12q-44 0 -71.5 -26.5 t-43.5 -64t-21.5 -79t-5.5 -72.5z" />
<glyph unicode="&#xe7;" horiz-adv-x="401" d="M372 453q-15 4 -40 4q-8 0 -15 -0.5t-15 -1.5q7 21 7 55q0 72 -25.5 115t-70.5 43q-35 0 -60 -23.5t-42 -65t-25 -99t-8 -124.5q0 -38 4 -91t16.5 -101.5t37.5 -82.5t67 -34q18 0 36.5 7t33 26t24 51.5t9.5 83.5q0 13 -1 25t-3 24q25 -6 49 -6h11q5 0 10 1 q-13 -66 -24 -116t-27 -83t-40 -50.5t-63 -19.5v-18q35 0 50 -15.5t15 -36.5q0 -28 -18 -48.5t-56 -20.5q-27 0 -52 7q4 15 4 33q0 4 -0.5 7.5t-0.5 7.5q25 -16 49 -16q15 0 25 8t10 21q0 12 -10.5 20t-28.5 8h-7q-4 0 -9 -1l2 45q-35 4 -61 23.5t-44.5 49t-30.5 66.5 t-19 75.5t-9.5 76t-2.5 68.5q0 36 2.5 78t10 83.5t20.5 80t34 68t51.5 47.5t72.5 18q52 0 82 -27.5t46 -69t21 -89t8 -86.5z" />
<glyph unicode="&#xe8;" horiz-adv-x="432" d="M82 429q70 -3 141 -3q54 0 107 3q1 9 1 18v18q0 53 -8.5 92t-23 64.5t-34 37.5t-41.5 12q-44 0 -71.5 -26.5t-43.5 -64t-21.5 -79t-5.5 -72.5zM390 373q-77 -3 -154 -3q-78 0 -156 3q-1 -11 -1 -21v-20q0 -61 12.5 -112.5t34.5 -89t50.5 -58.5t61.5 -21q25 0 44.5 12.5 t33.5 33t21.5 46.5t7.5 54q0 32 -8 72q11 -3 21 -4t20 -1q8 0 15 0.5t15 1.5q-2 -62 -12 -112t-30 -85t-52.5 -54.5t-78.5 -19.5q-43 0 -75 16.5t-55.5 43.5t-39 63t-24.5 75t-13 78t-4 74q0 81 7 150.5t28.5 119.5t60.5 78.5t103 28.5q25 0 49 -9t44.5 -26.5t35.5 -43.5 t21 -59q9 -51 12.5 -102.5t4.5 -108.5zM323 812q-9 -9 -17 -20.5t-14 -26.5l-79 67q-41 35 -80 64q28 17 42 38q27 -35 63.5 -68t84.5 -54z" />
<glyph unicode="&#xe9;" horiz-adv-x="432" d="M82 429q70 -3 141 -3q54 0 107 3q1 9 1 18v18q0 53 -8.5 92t-23 64.5t-34 37.5t-41.5 12q-44 0 -71.5 -26.5t-43.5 -64t-21.5 -79t-5.5 -72.5zM390 373q-77 -3 -154 -3q-78 0 -156 3q-1 -11 -1 -21v-20q0 -61 12.5 -112.5t34.5 -89t50.5 -58.5t61.5 -21q25 0 44.5 12.5 t33.5 33t21.5 46.5t7.5 54q0 32 -8 72q11 -3 21 -4t20 -1q8 0 15 0.5t15 1.5q-2 -62 -12 -112t-30 -85t-52.5 -54.5t-78.5 -19.5q-43 0 -75 16.5t-55.5 43.5t-39 63t-24.5 75t-13 78t-4 74q0 81 7 150.5t28.5 119.5t60.5 78.5t103 28.5q25 0 49 -9t44.5 -26.5t35.5 -43.5 t21 -59q9 -51 12.5 -102.5t4.5 -108.5zM279 940q9 -11 20 -20.5t23 -17.5q-40 -29 -72.5 -67.5t-58.5 -76.5q-8 13 -17.5 23.5t-19.5 18.5q40 31 69.5 64.5t55.5 75.5z" />
<glyph unicode="&#xea;" horiz-adv-x="432" d="M82 429q70 -3 141 -3q54 0 107 3q1 9 1 18v18q0 53 -8.5 92t-23 64.5t-34 37.5t-41.5 12q-44 0 -71.5 -26.5t-43.5 -64t-21.5 -79t-5.5 -72.5zM390 373q-77 -3 -154 -3q-78 0 -156 3q-1 -11 -1 -21v-20q0 -61 12.5 -112.5t34.5 -89t50.5 -58.5t61.5 -21q25 0 44.5 12.5 t33.5 33t21.5 46.5t7.5 54q0 32 -8 72q11 -3 21 -4t20 -1q8 0 15 0.5t15 1.5q-2 -62 -12 -112t-30 -85t-52.5 -54.5t-78.5 -19.5q-43 0 -75 16.5t-55.5 43.5t-39 63t-24.5 75t-13 78t-4 74q0 81 7 150.5t28.5 119.5t60.5 78.5t103 28.5q25 0 49 -9t44.5 -26.5t35.5 -43.5 t21 -59q9 -51 12.5 -102.5t4.5 -108.5zM338 825q-13 -9 -25 -20.5t-23 -24.5q-17 30 -36.5 53.5t-39.5 55.5q-19 -30 -36.5 -53.5t-34.5 -51.5q-22 29 -46 44q32 26 58 56.5t56 75.5q35 -45 66 -78.5t61 -56.5z" />
<glyph unicode="&#xeb;" horiz-adv-x="432" d="M82 429q70 -3 141 -3q54 0 107 3q1 9 1 18v18q0 53 -8.5 92t-23 64.5t-34 37.5t-41.5 12q-44 0 -71.5 -26.5t-43.5 -64t-21.5 -79t-5.5 -72.5zM390 373q-77 -3 -154 -3q-78 0 -156 3q-1 -11 -1 -21v-20q0 -61 12.5 -112.5t34.5 -89t50.5 -58.5t61.5 -21q25 0 44.5 12.5 t33.5 33t21.5 46.5t7.5 54q0 32 -8 72q11 -3 21 -4t20 -1q8 0 15 0.5t15 1.5q-2 -62 -12 -112t-30 -85t-52.5 -54.5t-78.5 -19.5q-43 0 -75 16.5t-55.5 43.5t-39 63t-24.5 75t-13 78t-4 74q0 81 7 150.5t28.5 119.5t60.5 78.5t103 28.5q25 0 49 -9t44.5 -26.5t35.5 -43.5 t21 -59q9 -51 12.5 -102.5t4.5 -108.5zM314 899q20 0 40 -13.5t20 -39.5q0 -25 -18 -44.5t-47 -19.5q-14 0 -24.5 5.5t-17.5 14t-10.5 18.5t-3.5 18q0 23 16.5 42t44.5 19zM174 850q0 -7 -3 -19t-10.5 -23t-20 -19.5t-30.5 -8.5q-24 0 -39.5 15t-15.5 38q0 25 15.5 45.5 t42.5 20.5q7 0 17 -1.5t20 -7t17 -15t7 -25.5z" />
<glyph unicode="&#xec;" horiz-adv-x="139" d="M31 707q6 -2 12 -2h11h16h17h11q6 0 12 2q-5 -48 -7.5 -145t-2.5 -256q0 -222 12 -306q-11 1 -21 1.5t-21 0.5q-10 0 -20 -0.5t-21 -1.5q15 93 15 357q0 137 -3 221t-10 129zM136 812q-9 -9 -17 -20.5t-14 -26.5l-79 67q-41 35 -80 64q28 17 42 38q27 -35 63.5 -68 t84.5 -54z" />
<glyph unicode="&#xed;" horiz-adv-x="139" d="M31 707q6 -2 12 -2h11h16h17h11q6 0 12 2q-5 -48 -7.5 -145t-2.5 -256q0 -222 12 -306q-11 1 -21 1.5t-21 0.5q-10 0 -20 -0.5t-21 -1.5q15 93 15 357q0 137 -3 221t-10 129zM142 940q9 -11 20 -20.5t23 -17.5q-40 -29 -72.5 -67.5t-58.5 -76.5q-8 13 -17.5 23.5 t-19.5 18.5q40 31 69.5 64.5t55.5 75.5z" />
<glyph unicode="&#xee;" horiz-adv-x="139" d="M31 707q6 -2 12 -2h11h16h17h11q6 0 12 2q-5 -48 -7.5 -145t-2.5 -256q0 -222 12 -306q-11 1 -21 1.5t-21 0.5q-10 0 -20 -0.5t-21 -1.5q15 93 15 357q0 137 -3 221t-10 129zM191 825q-13 -9 -25 -20.5t-23 -24.5q-17 30 -36.5 53.5t-39.5 55.5q-19 -30 -36.5 -53.5 t-34.5 -51.5q-22 29 -46 44q32 26 58 56.5t56 75.5q35 -45 66 -78.5t61 -56.5z" />
<glyph unicode="&#xef;" horiz-adv-x="139" d="M31 707q6 -2 12 -2h11h16h17h11q6 0 12 2q-5 -48 -7.5 -145t-2.5 -256q0 -222 12 -306q-11 1 -21 1.5t-21 0.5q-10 0 -20 -0.5t-21 -1.5q15 93 15 357q0 137 -3 221t-10 129zM170 899q20 0 40 -13.5t20 -39.5q0 -25 -18 -44.5t-47 -19.5q-14 0 -24.5 5.5t-17.5 14 t-10.5 18.5t-3.5 18q0 23 16.5 42t44.5 19zM30 850q0 -7 -3 -19t-10.5 -23t-20 -19.5t-30.5 -8.5q-24 0 -39.5 15t-15.5 38q0 25 15.5 45.5t42.5 20.5q7 0 17 -1.5t20 -7t17 -15t7 -25.5z" />
<glyph unicode="&#xf0;" horiz-adv-x="423" d="M119 708q60 0 104.5 -15.5t75.5 -42.5t50.5 -64t30.5 -79t15 -88t4 -92q0 -59 -14.5 -118t-46 -106.5t-81.5 -76.5q-48 -28 -116 -28h-5l-89 1q1 29 1.5 57.5t0.5 57.5q0 48 -1 96.5t-3 99.5l-48 -3q2 10 3.5 19.5t1.5 20.5q0 7 -0.5 13.5t-1.5 14.5q11 -2 22 -3l21 -2 q-3 85 -5.5 168.5t-2.5 168.5zM230 371q-2 -17 -3 -33.5t-1 -34.5q-59 9 -115 9h-10q2 -52 3 -102.5t1 -101.5v-59q7 -2 15.5 -2.5t18.5 -0.5q37 0 75 15t68 48t49 86t19 129q0 35 -2.5 73t-9.5 74.5t-21 69t-37 57.5t-57 39.5t-81 14.5q-23 0 -50 -3q1 -75 3.5 -144 t4.5 -138h15q28 0 57 1t58 3z" />
<glyph unicode="&#xf1;" d="M316 710q19 -3 40 -3q8 0 16 0.5t16 1.5q-5 -40 -9 -104.5t-6.5 -140.5t-4 -156.5t-1.5 -151.5q0 -45 1 -84t3 -74q-14 0 -28.5 -0.5t-31.5 -4.5q-39 121 -70.5 209t-58.5 155t-50 119l-47 99q-4 -75 -6 -148t-2 -151q0 -137 6 -284q-8 1 -15 1.5t-15 0.5q-7 0 -14 -0.5 t-15 -1.5q8 78 11 183t3 238q0 146 -3 295q6 -2 12 -2h12h16h15h12q5 0 11 2q52 -183 106 -316.5t102 -237.5v220q0 89 -1 150.5t-2 103.5zM325 926q14 -5 29.5 -6.5t32.5 -1.5q-4 -20 -11.5 -43t-19 -42.5t-28.5 -32t-40 -12.5q-28 0 -47.5 13.5t-37.5 47.5 q-10 18 -22.5 27t-24.5 9q-27 0 -39.5 -19t-12.5 -65q-14 3 -27.5 5t-28.5 2q10 31 19 53.5t20 37.5t25.5 22t36.5 7q33 0 52.5 -16t41.5 -48q12 -18 23 -25.5t21 -7.5q16 0 29 17.5t13 44.5q0 18 -4 33z" />
<glyph unicode="&#xf2;" horiz-adv-x="444" d="M84 353q0 -97 14 -158t35 -95t44.5 -46.5t43.5 -12.5q17 0 41 11t45.5 44t37 94.5t15.5 162.5q0 76 -8 129.5t-20 88.5t-28 55t-31 29.5t-29 12t-23 2.5q-19 0 -43 -8.5t-45 -41t-35 -95.5t-14 -172zM221 726q44 0 80.5 -18.5t63 -62t41 -115t14.5 -177.5 q0 -86 -8.5 -146.5t-23.5 -101.5t-35 -65t-42 -36.5t-45 -16t-45 -3.5q-34 0 -69 14.5t-63.5 52.5t-46.5 104t-18 168q0 93 8.5 159t23.5 111t34.5 71.5t41.5 40t45 17.5t44 4zM328 812q-9 -9 -17 -20.5t-14 -26.5l-79 67q-41 35 -80 64q28 17 42 38q27 -35 63.5 -68 t84.5 -54z" />
<glyph unicode="&#xf3;" horiz-adv-x="444" d="M84 353q0 -97 14 -158t35 -95t44.5 -46.5t43.5 -12.5q17 0 41 11t45.5 44t37 94.5t15.5 162.5q0 76 -8 129.5t-20 88.5t-28 55t-31 29.5t-29 12t-23 2.5q-19 0 -43 -8.5t-45 -41t-35 -95.5t-14 -172zM221 726q44 0 80.5 -18.5t63 -62t41 -115t14.5 -177.5 q0 -86 -8.5 -146.5t-23.5 -101.5t-35 -65t-42 -36.5t-45 -16t-45 -3.5q-34 0 -69 14.5t-63.5 52.5t-46.5 104t-18 168q0 93 8.5 159t23.5 111t34.5 71.5t41.5 40t45 17.5t44 4zM293 940q9 -11 20 -20.5t23 -17.5q-40 -29 -72.5 -67.5t-58.5 -76.5q-8 13 -17.5 23.5 t-19.5 18.5q40 31 69.5 64.5t55.5 75.5z" />
<glyph unicode="&#xf4;" horiz-adv-x="444" d="M84 353q0 -97 14 -158t35 -95t44.5 -46.5t43.5 -12.5q17 0 41 11t45.5 44t37 94.5t15.5 162.5q0 76 -8 129.5t-20 88.5t-28 55t-31 29.5t-29 12t-23 2.5q-19 0 -43 -8.5t-45 -41t-35 -95.5t-14 -172zM221 726q44 0 80.5 -18.5t63 -62t41 -115t14.5 -177.5 q0 -86 -8.5 -146.5t-23.5 -101.5t-35 -65t-42 -36.5t-45 -16t-45 -3.5q-34 0 -69 14.5t-63.5 52.5t-46.5 104t-18 168q0 93 8.5 159t23.5 111t34.5 71.5t41.5 40t45 17.5t44 4zM342 825q-13 -9 -25 -20.5t-23 -24.5q-17 30 -36.5 53.5t-39.5 55.5q-19 -30 -36.5 -53.5 t-34.5 -51.5q-22 29 -46 44q32 26 58 56.5t56 75.5q35 -45 66 -78.5t61 -56.5z" />
<glyph unicode="&#xf5;" horiz-adv-x="444" d="M84 353q0 -97 14 -158t35 -95t44.5 -46.5t43.5 -12.5q17 0 41 11t45.5 44t37 94.5t15.5 162.5q0 76 -8 129.5t-20 88.5t-28 55t-31 29.5t-29 12t-23 2.5q-19 0 -43 -8.5t-45 -41t-35 -95.5t-14 -172zM221 726q44 0 80.5 -18.5t63 -62t41 -115t14.5 -177.5 q0 -86 -8.5 -146.5t-23.5 -101.5t-35 -65t-42 -36.5t-45 -16t-45 -3.5q-34 0 -69 14.5t-63.5 52.5t-46.5 104t-18 168q0 93 8.5 159t23.5 111t34.5 71.5t41.5 40t45 17.5t44 4zM329 926q14 -5 29.5 -6.5t32.5 -1.5q-4 -20 -11.5 -43t-19 -42.5t-28.5 -32t-40 -12.5 q-28 0 -47.5 13.5t-37.5 47.5q-10 18 -22.5 27t-24.5 9q-27 0 -39.5 -19t-12.5 -65q-14 3 -27.5 5t-28.5 2q10 31 19 53.5t20 37.5t25.5 22t36.5 7q33 0 52.5 -16t41.5 -48q12 -18 23 -25.5t21 -7.5q16 0 29 17.5t13 44.5q0 18 -4 33z" />
<glyph unicode="&#xf6;" horiz-adv-x="444" d="M84 353q0 -97 14 -158t35 -95t44.5 -46.5t43.5 -12.5q17 0 41 11t45.5 44t37 94.5t15.5 162.5q0 76 -8 129.5t-20 88.5t-28 55t-31 29.5t-29 12t-23 2.5q-19 0 -43 -8.5t-45 -41t-35 -95.5t-14 -172zM221 726q44 0 80.5 -18.5t63 -62t41 -115t14.5 -177.5 q0 -86 -8.5 -146.5t-23.5 -101.5t-35 -65t-42 -36.5t-45 -16t-45 -3.5q-34 0 -69 14.5t-63.5 52.5t-46.5 104t-18 168q0 93 8.5 159t23.5 111t34.5 71.5t41.5 40t45 17.5t44 4zM321 899q20 0 40 -13.5t20 -39.5q0 -25 -18 -44.5t-47 -19.5q-14 0 -24.5 5.5t-17.5 14 t-10.5 18.5t-3.5 18q0 23 16.5 42t44.5 19zM181 850q0 -7 -3 -19t-10.5 -23t-20 -19.5t-30.5 -8.5q-24 0 -39.5 15t-15.5 38q0 25 15.5 45.5t42.5 20.5q7 0 17 -1.5t20 -7t17 -15t7 -25.5z" />
<glyph unicode="&#xf7;" horiz-adv-x="450" d="M160 328q-48 0 -82 -2.5t-54 -4.5q2 11 3.5 22t1.5 23q0 3 -0.5 6.5t-0.5 7.5q17 -5 43.5 -7.5t68.5 -2.5h160q82 0 126 10q-2 -10 -3 -19.5t-1 -18.5q0 -7 0.5 -13.5t1.5 -12.5q-44 12 -109 12h-155zM223 473q-26 0 -44 18t-18 46q0 30 22.5 46t47.5 16q26 0 41.5 -17.5 t15.5 -47.5q0 -24 -16 -42.5t-49 -18.5zM223 86q-26 0 -44 18t-18 46q0 30 22.5 46t47.5 16q26 0 41.5 -17.5t15.5 -47.5q0 -24 -16 -42.5t-49 -18.5z" />
<glyph unicode="&#xf8;" horiz-adv-x="444" d="M310 703q7 14 13 29.5t11 33.5q27 -16 66 -19l-8 -17l-12 -24l-13 -26q-6 -13 -10 -23q29 -43 46 -116.5t17 -187.5q0 -86 -8.5 -147t-23.5 -102.5t-35 -66.5t-42 -38t-45 -17t-45 -4q-23 0 -47.5 7t-47.5 24q-16 -25 -22 -59q-15 7 -30.5 12t-34.5 8l21 41q13 26 21 48 q-26 40 -41.5 103.5t-15.5 160.5q0 93 8.5 159t23.5 111t34.5 71.5t41.5 40t45 17.5t44 4q48 0 89 -23zM360 353q0 85 -10 141t-24 91l-28 -72l-32 -89l-34 -98l-32 -96l-30 -86l-22 -67q18 -24 37.5 -33t35.5 -9q17 0 41 12t45.5 46.5t37 96.5t15.5 163zM84 353 q0 -72 7.5 -123.5t20.5 -87.5q13 32 28 75l33 91l33 96l32 95l29 83l22 61q-20 19 -38.5 23t-29.5 4q-19 0 -42 -8.5t-44 -41t-35.5 -95.5t-15.5 -172z" />
<glyph unicode="&#xf9;" horiz-adv-x="395" d="M304 708q18 -3 36 -3h15q7 0 15 1q-5 -34 -6.5 -71.5t-1.5 -82.5q0 -31 0.5 -66t0.5 -75q0 -95 -0.5 -163t-5 -115t-14.5 -75.5t-28.5 -43.5t-48.5 -20t-73 -5q-25 0 -46.5 3.5t-39 18t-31 43t-22.5 78.5t-14 125.5t-5 183.5q0 34 1 64t1 58q0 81 -9 146q18 -3 35 -3 t34 3q-5 -45 -8 -100t-3 -127q0 -142 3.5 -228t16.5 -132.5t38.5 -61.5t69.5 -15q35 0 54.5 12t29 37.5t11.5 66.5t2 98q0 157 -2.5 267t-4.5 182zM262 812q-9 -9 -17 -20.5t-14 -26.5l-79 67q-41 35 -80 64q28 17 42 38q27 -35 63.5 -68t84.5 -54z" />
<glyph unicode="&#xfa;" horiz-adv-x="395" d="M304 708q18 -3 36 -3h15q7 0 15 1q-5 -34 -6.5 -71.5t-1.5 -82.5q0 -31 0.5 -66t0.5 -75q0 -95 -0.5 -163t-5 -115t-14.5 -75.5t-28.5 -43.5t-48.5 -20t-73 -5q-25 0 -46.5 3.5t-39 18t-31 43t-22.5 78.5t-14 125.5t-5 183.5q0 34 1 64t1 58q0 81 -9 146q18 -3 35 -3 t34 3q-5 -45 -8 -100t-3 -127q0 -142 3.5 -228t16.5 -132.5t38.5 -61.5t69.5 -15q35 0 54.5 12t29 37.5t11.5 66.5t2 98q0 157 -2.5 267t-4.5 182zM268 940q9 -11 20 -20.5t23 -17.5q-40 -29 -72.5 -67.5t-58.5 -76.5q-8 13 -17.5 23.5t-19.5 18.5q40 31 69.5 64.5 t55.5 75.5z" />
<glyph unicode="&#xfb;" horiz-adv-x="395" d="M304 708q18 -3 36 -3h15q7 0 15 1q-5 -34 -6.5 -71.5t-1.5 -82.5q0 -31 0.5 -66t0.5 -75q0 -95 -0.5 -163t-5 -115t-14.5 -75.5t-28.5 -43.5t-48.5 -20t-73 -5q-25 0 -46.5 3.5t-39 18t-31 43t-22.5 78.5t-14 125.5t-5 183.5q0 34 1 64t1 58q0 81 -9 146q18 -3 35 -3 t34 3q-5 -45 -8 -100t-3 -127q0 -142 3.5 -228t16.5 -132.5t38.5 -61.5t69.5 -15q35 0 54.5 12t29 37.5t11.5 66.5t2 98q0 157 -2.5 267t-4.5 182zM318 825q-13 -9 -25 -20.5t-23 -24.5q-17 30 -36.5 53.5t-39.5 55.5q-19 -30 -36.5 -53.5t-34.5 -51.5q-22 29 -46 44 q32 26 58 56.5t56 75.5q35 -45 66 -78.5t61 -56.5z" />
<glyph unicode="&#xfc;" horiz-adv-x="395" d="M304 708q18 -3 36 -3h15q7 0 15 1q-5 -34 -6.5 -71.5t-1.5 -82.5q0 -31 0.5 -66t0.5 -75q0 -95 -0.5 -163t-5 -115t-14.5 -75.5t-28.5 -43.5t-48.5 -20t-73 -5q-25 0 -46.5 3.5t-39 18t-31 43t-22.5 78.5t-14 125.5t-5 183.5q0 34 1 64t1 58q0 81 -9 146q18 -3 35 -3 t34 3q-5 -45 -8 -100t-3 -127q0 -142 3.5 -228t16.5 -132.5t38.5 -61.5t69.5 -15q35 0 54.5 12t29 37.5t11.5 66.5t2 98q0 157 -2.5 267t-4.5 182zM297 899q20 0 40 -13.5t20 -39.5q0 -25 -18 -44.5t-47 -19.5q-14 0 -24.5 5.5t-17.5 14t-10.5 18.5t-3.5 18q0 23 16.5 42 t44.5 19zM157 850q0 -7 -3 -19t-10.5 -23t-20 -19.5t-30.5 -8.5q-24 0 -39.5 15t-15.5 38q0 25 15.5 45.5t42.5 20.5q7 0 17 -1.5t20 -7t17 -15t7 -25.5z" />
<glyph unicode="&#xfd;" horiz-adv-x="408" d="M338 724q30 -23 63 -36q-54 -75 -96.5 -164.5t-68.5 -189.5v-188q0 -71 6 -146q-8 0 -16 0.5t-16 0.5q-20 0 -39 -3q3 31 5 59t3.5 57.5t2 62.5t0.5 74v77l-38 84l-43 94l-47 96l-47 89q34 10 66 30l63 -157q31 -78 66 -175q32 102 68 183zM243 940q9 -11 20 -20.5 t23 -17.5q-40 -29 -72.5 -67.5t-58.5 -76.5q-8 13 -17.5 23.5t-19.5 18.5q40 31 69.5 64.5t55.5 75.5z" />
<glyph unicode="&#xfe;" horiz-adv-x="381" d="M31 707q6 -2 12 -2h11h16h17h11q6 0 12 2q-2 -25 -4.5 -64.5t-3.5 -90.5q6 1 13 1.5t14 0.5q54 0 96.5 -7.5t72 -28.5t45.5 -59.5t16 -99.5q0 -134 -55.5 -193.5t-149.5 -59.5q-13 0 -25.5 1.5t-26.5 3.5q2 -36 4.5 -63t5.5 -47q-10 0 -19.5 0.5t-19.5 0.5q-25 0 -49 -3 q6 23 10 57t6 82.5t3 112.5t1 147q0 114 -3 189t-10 120zM301 331q0 45 -5 77t-21 52.5t-45 30t-77 9.5q-24 0 -52 -3q0 -23 1 -91.5t1 -168.5v-35q0 -17 -2 -34q31 -6 58 -6q34 0 60.5 8.5t44.5 28.5t27.5 52.5t9.5 79.5z" />
<glyph unicode="&#xff;" horiz-adv-x="408" d="M338 724q30 -23 63 -36q-54 -75 -96.5 -164.5t-68.5 -189.5v-188q0 -71 6 -146q-8 0 -16 0.5t-16 0.5q-20 0 -39 -3q3 31 5 59t3.5 57.5t2 62.5t0.5 74v77l-38 84l-43 94l-47 96l-47 89q34 10 66 30l63 -157q31 -78 66 -175q32 102 68 183zM303 899q20 0 40 -13.5 t20 -39.5q0 -25 -18 -44.5t-47 -19.5q-14 0 -24.5 5.5t-17.5 14t-10.5 18.5t-3.5 18q0 23 16.5 42t44.5 19zM163 850q0 -7 -3 -19t-10.5 -23t-20 -19.5t-30.5 -8.5q-24 0 -39.5 15t-15.5 38q0 25 15.5 45.5t42.5 20.5q7 0 17 -1.5t20 -7t17 -15t7 -25.5z" />
<glyph unicode="&#x102;" d="M365 93q0 -50 36 -93q-20 0 -38.5 -1t-38.5 -5q-4 3 -7 10t-5 15t-3 16t-1 14q-29 -59 -103 -59q-44 0 -77.5 21.5t-55.5 55.5t-33 76.5t-11 84.5q0 124 49.5 187t133.5 63q30 0 58.5 -16t45.5 -43q1 13 1 25v24q0 60 -6.5 99.5t-18.5 62.5t-29.5 32.5t-39.5 9.5 t-41.5 -5t-34.5 -18.5t-23.5 -36t-8.5 -58.5q0 -8 0.5 -16t1.5 -17q-20 4 -37.5 4.5t-36.5 0.5q9 61 25.5 99.5t38.5 60.5t49.5 30.5t59.5 8.5q35 0 68.5 -15t53.5 -44q19 -29 23.5 -83.5t4.5 -139.5v-350zM307 328q-7 46 -36.5 71t-65.5 25q-32 0 -54 -16.5t-36.5 -42.5 t-21 -60t-6.5 -68q0 -28 5.5 -61t20 -61.5t39.5 -48t63 -19.5q27 0 51.5 14t40.5 46v221zM296 941q24 -19 56 -25q-13 -63 -45.5 -98.5t-89.5 -35.5t-89 34t-46 106q27 4 59 18q5 -38 24 -66t53 -28q36 0 52.5 26.5t25.5 68.5z" />
<glyph unicode="&#x103;" d="M365 93q0 -50 36 -93q-20 0 -38.5 -1t-38.5 -5q-4 3 -7 10t-5 15t-3 16t-1 14q-29 -59 -103 -59q-44 0 -77.5 21.5t-55.5 55.5t-33 76.5t-11 84.5q0 124 49.5 187t133.5 63q30 0 58.5 -16t45.5 -43q1 13 1 25v24q0 60 -6.5 99.5t-18.5 62.5t-29.5 32.5t-39.5 9.5 t-41.5 -5t-34.5 -18.5t-23.5 -36t-8.5 -58.5q0 -8 0.5 -16t1.5 -17q-20 4 -37.5 4.5t-36.5 0.5q9 61 25.5 99.5t38.5 60.5t49.5 30.5t59.5 8.5q35 0 68.5 -15t53.5 -44q19 -29 23.5 -83.5t4.5 -139.5v-350zM307 328q-7 46 -36.5 71t-65.5 25q-32 0 -54 -16.5t-36.5 -42.5 t-21 -60t-6.5 -68q0 -28 5.5 -61t20 -61.5t39.5 -48t63 -19.5q27 0 51.5 14t40.5 46v221zM296 941q24 -19 56 -25q-13 -63 -45.5 -98.5t-89.5 -35.5t-89 34t-46 106q27 4 59 18q5 -38 24 -66t53 -28q36 0 52.5 26.5t25.5 68.5z" />
<glyph unicode="&#x104;" d="M365 93q0 -50 36 -93q-31 -11 -51 -23t-32 -24t-17 -23t-5 -18q0 -20 11.5 -28t26.5 -8q9 0 20.5 3t23.5 10q-2 -10 -3 -21t-1 -22v-12q0 -5 1 -10q-28 -7 -52 -7q-38 0 -61.5 17t-23.5 50q0 29 20.5 58t65.5 52q-4 3 -7 10t-5 15t-3 16t-1 14q-29 -59 -103 -59 q-44 0 -77.5 21.5t-55.5 55.5t-33 76.5t-11 84.5q0 124 49.5 187t133.5 63q30 0 58.5 -16t45.5 -43q1 13 1 25v24q0 60 -6.5 99.5t-18.5 62.5t-29.5 32.5t-39.5 9.5t-41.5 -5t-34.5 -18.5t-23.5 -36t-8.5 -58.5q0 -8 0.5 -16t1.5 -17q-20 4 -37.5 4.5t-36.5 0.5 q9 61 25.5 99.5t38.5 60.5t49.5 30.5t59.5 8.5q35 0 68.5 -15t53.5 -44q19 -29 23.5 -83.5t4.5 -139.5v-350zM307 328q-7 46 -36.5 71t-65.5 25q-32 0 -54 -16.5t-36.5 -42.5t-21 -60t-6.5 -68q0 -28 5.5 -61t20 -61.5t39.5 -48t63 -19.5q27 0 51.5 14t40.5 46v221z" />
<glyph unicode="&#x105;" d="M365 93q0 -50 36 -93q-31 -11 -51 -23t-32 -24t-17 -23t-5 -18q0 -20 11.5 -28t26.5 -8q9 0 20.5 3t23.5 10q-2 -10 -3 -21t-1 -22v-12q0 -5 1 -10q-28 -7 -52 -7q-38 0 -61.5 17t-23.5 50q0 29 20.5 58t65.5 52q-4 3 -7 10t-5 15t-3 16t-1 14q-29 -59 -103 -59 q-44 0 -77.5 21.5t-55.5 55.5t-33 76.5t-11 84.5q0 124 49.5 187t133.5 63q30 0 58.5 -16t45.5 -43q1 13 1 25v24q0 60 -6.5 99.5t-18.5 62.5t-29.5 32.5t-39.5 9.5t-41.5 -5t-34.5 -18.5t-23.5 -36t-8.5 -58.5q0 -8 0.5 -16t1.5 -17q-20 4 -37.5 4.5t-36.5 0.5 q9 61 25.5 99.5t38.5 60.5t49.5 30.5t59.5 8.5q35 0 68.5 -15t53.5 -44q19 -29 23.5 -83.5t4.5 -139.5v-350zM307 328q-7 46 -36.5 71t-65.5 25q-32 0 -54 -16.5t-36.5 -42.5t-21 -60t-6.5 -68q0 -28 5.5 -61t20 -61.5t39.5 -48t63 -19.5q27 0 51.5 14t40.5 46v221z" />
<glyph unicode="&#x106;" horiz-adv-x="401" d="M372 453q-15 4 -40 4q-8 0 -15 -0.5t-15 -1.5q7 21 7 55q0 72 -25.5 115t-70.5 43q-35 0 -60 -23.5t-42 -65t-25 -99t-8 -124.5q0 -38 4 -91t16.5 -101.5t37.5 -82.5t67 -34q18 0 36.5 7t33 26t24 51.5t9.5 83.5q0 13 -1 25t-3 24q25 -6 49 -6h11q5 0 10 1l-25 -119 q-11 -50 -27.5 -83.5t-42 -50t-68.5 -16.5q-39 0 -67.5 17.5t-49 47t-34 67t-21 77.5t-10.5 79t-3 72q0 36 2.5 78t10 83.5t20.5 80t34 68t51.5 47.5t72.5 18q52 0 82 -27.5t46 -69t21 -89t8 -86.5zM269 940q9 -11 20 -20.5t23 -17.5q-40 -29 -72.5 -67.5t-58.5 -76.5 q-8 13 -17.5 23.5t-19.5 18.5q40 31 69.5 64.5t55.5 75.5z" />
<glyph unicode="&#x107;" horiz-adv-x="401" d="M372 453q-15 4 -40 4q-8 0 -15 -0.5t-15 -1.5q7 21 7 55q0 72 -25.5 115t-70.5 43q-35 0 -60 -23.5t-42 -65t-25 -99t-8 -124.5q0 -38 4 -91t16.5 -101.5t37.5 -82.5t67 -34q18 0 36.5 7t33 26t24 51.5t9.5 83.5q0 13 -1 25t-3 24q25 -6 49 -6h11q5 0 10 1l-25 -119 q-11 -50 -27.5 -83.5t-42 -50t-68.5 -16.5q-39 0 -67.5 17.5t-49 47t-34 67t-21 77.5t-10.5 79t-3 72q0 36 2.5 78t10 83.5t20.5 80t34 68t51.5 47.5t72.5 18q52 0 82 -27.5t46 -69t21 -89t8 -86.5zM269 940q9 -11 20 -20.5t23 -17.5q-40 -29 -72.5 -67.5t-58.5 -76.5 q-8 13 -17.5 23.5t-19.5 18.5q40 31 69.5 64.5t55.5 75.5z" />
<glyph unicode="&#x118;" horiz-adv-x="432" d="M390 373q-77 -3 -154 -3q-78 0 -156 3q-1 -11 -1 -21v-20q0 -61 12.5 -112.5t34.5 -89t50.5 -58.5t61.5 -21q25 0 44.5 12.5t33.5 33t21.5 46.5t7.5 54q0 32 -8 72q11 -3 21 -4t20 -1q8 0 15 0.5t15 1.5q-2 -57 -10.5 -104t-26 -81.5t-44 -56t-65.5 -27.5 q-42 -22 -59 -45.5t-17 -39.5q0 -20 11.5 -28t26.5 -8q9 0 20.5 3t23.5 10q-2 -10 -3 -21t-1 -22v-12q0 -5 1 -10q-28 -7 -52 -7q-38 0 -61.5 17t-23.5 50q0 29 22 59t68 53q-59 5 -96.5 41.5t-59.5 88t-30 110.5t-8 109q0 81 7 150.5t28.5 119.5t60.5 78.5t103 28.5 q25 0 49 -9t44.5 -26.5t35.5 -43.5t21 -59q9 -51 12.5 -102.5t4.5 -108.5zM82 429q70 -3 141 -3q54 0 107 3q1 9 1 18v18q0 53 -8.5 92t-23 64.5t-34 37.5t-41.5 12q-44 0 -71.5 -26.5t-43.5 -64t-21.5 -79t-5.5 -72.5z" />
<glyph unicode="&#x119;" horiz-adv-x="432" d="M390 373q-77 -3 -154 -3q-78 0 -156 3q-1 -11 -1 -21v-20q0 -61 12.5 -112.5t34.5 -89t50.5 -58.5t61.5 -21q25 0 44.5 12.5t33.5 33t21.5 46.5t7.5 54q0 32 -8 72q11 -3 21 -4t20 -1q8 0 15 0.5t15 1.5q-2 -57 -10.5 -104t-26 -81.5t-44 -56t-65.5 -27.5 q-42 -22 -59 -45.5t-17 -39.5q0 -20 11.5 -28t26.5 -8q9 0 20.5 3t23.5 10q-2 -10 -3 -21t-1 -22v-12q0 -5 1 -10q-28 -7 -52 -7q-38 0 -61.5 17t-23.5 50q0 29 22 59t68 53q-59 5 -96.5 41.5t-59.5 88t-30 110.5t-8 109q0 81 7 150.5t28.5 119.5t60.5 78.5t103 28.5 q25 0 49 -9t44.5 -26.5t35.5 -43.5t21 -59q9 -51 12.5 -102.5t4.5 -108.5zM82 429q70 -3 141 -3q54 0 107 3q1 9 1 18v18q0 53 -8.5 92t-23 64.5t-34 37.5t-41.5 12q-44 0 -71.5 -26.5t-43.5 -64t-21.5 -79t-5.5 -72.5z" />
<glyph unicode="&#x131;" horiz-adv-x="139" d="M31 707q6 -2 12 -2h11h16h17h11q6 0 12 2q-5 -48 -7.5 -145t-2.5 -256q0 -222 12 -306q-11 1 -21 1.5t-21 0.5q-10 0 -20 -0.5t-21 -1.5q15 93 15 357q0 137 -3 221t-10 129z" />
<glyph unicode="&#x141;" horiz-adv-x="303" d="M81 708q8 -1 16.5 -1.5t16.5 -0.5q10 0 20 0.5t20 1.5q-3 -29 -7 -105.5t-9 -211.5l67 31q6 -32 21 -64l-46 -14l-45 -16q-4 -114 -7.5 -181t-5.5 -93h42q33 0 68.5 2.5t64.5 8.5q-1 -8 -1.5 -16t-0.5 -16q0 -10 0.5 -19.5t1.5 -19.5q-42 6 -101 6h-139q7 27 12.5 102 t10.5 204q-32 -14 -66 -33q-5 17 -11 33t-13 32q24 5 46.5 12.5t45.5 16.5q2 72 3 129t1 99q0 45 -1.5 72t-3.5 41z" />
<glyph unicode="&#x142;" horiz-adv-x="303" d="M81 708q8 -1 16.5 -1.5t16.5 -0.5q10 0 20 0.5t20 1.5q-3 -29 -7 -105.5t-9 -211.5l67 31q6 -32 21 -64l-46 -14l-45 -16q-4 -114 -7.5 -181t-5.5 -93h42q33 0 68.5 2.5t64.5 8.5q-1 -8 -1.5 -16t-0.5 -16q0 -10 0.5 -19.5t1.5 -19.5q-42 6 -101 6h-139q7 27 12.5 102 t10.5 204q-32 -14 -66 -33q-5 17 -11 33t-13 32q24 5 46.5 12.5t45.5 16.5q2 72 3 129t1 99q0 45 -1.5 72t-3.5 41z" />
<glyph unicode="&#x143;" d="M316 710q19 -3 40 -3q8 0 16 0.5t16 1.5q-5 -40 -9 -104.5t-6.5 -140.5t-4 -156.5t-1.5 -151.5q0 -45 1 -84t3 -74q-14 0 -28.5 -0.5t-31.5 -4.5q-39 121 -70.5 209t-58.5 155t-50 119l-47 99q-4 -75 -6 -148t-2 -151q0 -137 6 -284q-8 1 -15 1.5t-15 0.5q-7 0 -14 -0.5 t-15 -1.5q8 78 11 183t3 238q0 146 -3 295q6 -2 12 -2h12h16h15h12q5 0 11 2q52 -183 106 -316.5t102 -237.5v220q0 89 -1 150.5t-2 103.5zM263 940q9 -11 20 -20.5t23 -17.5q-40 -29 -72.5 -67.5t-58.5 -76.5q-8 13 -17.5 23.5t-19.5 18.5q40 31 69.5 64.5t55.5 75.5z" />
<glyph unicode="&#x144;" d="M316 710q19 -3 40 -3q8 0 16 0.5t16 1.5q-5 -40 -9 -104.5t-6.5 -140.5t-4 -156.5t-1.5 -151.5q0 -45 1 -84t3 -74q-14 0 -28.5 -0.5t-31.5 -4.5q-39 121 -70.5 209t-58.5 155t-50 119l-47 99q-4 -75 -6 -148t-2 -151q0 -137 6 -284q-8 1 -15 1.5t-15 0.5q-7 0 -14 -0.5 t-15 -1.5q8 78 11 183t3 238q0 146 -3 295q6 -2 12 -2h12h16h15h12q5 0 11 2q52 -183 106 -316.5t102 -237.5v220q0 89 -1 150.5t-2 103.5zM263 940q9 -11 20 -20.5t23 -17.5q-40 -29 -72.5 -67.5t-58.5 -76.5q-8 13 -17.5 23.5t-19.5 18.5q40 31 69.5 64.5t55.5 75.5z" />
<glyph unicode="&#x152;" horiz-adv-x="766" d="M724 373q-27 -1 -53.5 -2.5t-53.5 -1.5h-101q-51 0 -102 4q-1 -11 -1 -21v-20q0 -61 12.5 -112.5t34.5 -89t50.5 -58.5t61.5 -21q25 0 44.5 12.5t33.5 33t21.5 46.5t7.5 54q0 32 -8 72q11 -2 22 -3.5t22 -1.5q7 0 13 0.5t14 1.5q-2 -62 -12 -112t-30 -85t-52.5 -54.5 t-78.5 -19.5q-35 0 -62.5 11.5t-49 31t-37 46t-26.5 56.5q-14 -53 -33.5 -84t-42.5 -47t-48 -20.5t-49 -4.5q-34 0 -69 14.5t-63.5 52.5t-46.5 104t-18 168q0 93 8.5 159t23.5 111t34.5 71.5t41.5 40t45 17.5t44 4q57 0 98.5 -31.5t67.5 -108.5q20 63 58.5 99.5t111.5 36.5 q25 0 49 -9t44.5 -26.5t35.5 -43.5t21 -59q9 -51 12.5 -102.5t4.5 -108.5zM84 353q0 -97 14 -158t35 -95t44.5 -46.5t43.5 -12.5q17 0 41 11t45.5 44t37 94.5t15.5 162.5q0 76 -8 129.5t-20 88.5t-28 55t-31 29.5t-29 12t-23 2.5q-19 0 -43 -8.5t-45 -41t-35 -95.5t-14 -172 zM416 429q29 -1 57 -1.5t57 -0.5q34 0 67 0.5t67 1.5q1 9 1 18v18q0 53 -8.5 92t-23 64.5t-34 37.5t-41.5 12q-44 0 -71.5 -26.5t-43.5 -64t-21.5 -79t-5.5 -72.5z" />
<glyph unicode="&#x153;" horiz-adv-x="766" d="M724 373q-27 -1 -53.5 -2.5t-53.5 -1.5h-101q-51 0 -102 4q-1 -11 -1 -21v-20q0 -61 12.5 -112.5t34.5 -89t50.5 -58.5t61.5 -21q25 0 44.5 12.5t33.5 33t21.5 46.5t7.5 54q0 32 -8 72q11 -2 22 -3.5t22 -1.5q7 0 13 0.5t14 1.5q-2 -62 -12 -112t-30 -85t-52.5 -54.5 t-78.5 -19.5q-35 0 -62.5 11.5t-49 31t-37 46t-26.5 56.5q-14 -53 -33.5 -84t-42.5 -47t-48 -20.5t-49 -4.5q-34 0 -69 14.5t-63.5 52.5t-46.5 104t-18 168q0 93 8.5 159t23.5 111t34.5 71.5t41.5 40t45 17.5t44 4q57 0 98.5 -31.5t67.5 -108.5q20 63 58.5 99.5t111.5 36.5 q25 0 49 -9t44.5 -26.5t35.5 -43.5t21 -59q9 -51 12.5 -102.5t4.5 -108.5zM84 353q0 -97 14 -158t35 -95t44.5 -46.5t43.5 -12.5q17 0 41 11t45.5 44t37 94.5t15.5 162.5q0 76 -8 129.5t-20 88.5t-28 55t-31 29.5t-29 12t-23 2.5q-19 0 -43 -8.5t-45 -41t-35 -95.5t-14 -172 zM416 429q29 -1 57 -1.5t57 -0.5q34 0 67 0.5t67 1.5q1 9 1 18v18q0 53 -8.5 92t-23 64.5t-34 37.5t-41.5 12q-44 0 -71.5 -26.5t-43.5 -64t-21.5 -79t-5.5 -72.5z" />
<glyph unicode="&#x15a;" horiz-adv-x="353" d="M318 490l-24 4q-10 1 -20 1q-7 0 -13.5 -0.5t-12.5 -1.5q16 36 16 74q0 54 -21 75t-63 21q-86 0 -86 -107q0 -22 3.5 -43t16 -43.5t36.5 -47.5t65 -56q36 -28 59 -52.5t35.5 -49t17 -50t4.5 -54.5q0 -93 -39.5 -133.5t-113.5 -40.5q-79 0 -114.5 48.5t-35.5 151.5v13 q0 6 1 14q5 -1 10 -1h10q28 0 51 4q-12 -54 -12 -89q0 -24 8 -40t20.5 -25.5t28.5 -13.5t32 -4q18 0 35.5 7t31.5 21t22.5 35.5t8.5 51.5q0 22 -4.5 43t-17.5 43t-36.5 46t-60.5 53q-35 27 -58 54t-36.5 54t-19 55.5t-5.5 58.5q0 46 11.5 76t30 47.5t43 24.5t51.5 7 q47 0 76 -12.5t44.5 -37t21 -60.5t5.5 -82v-19q0 -9 -2 -20zM222 940q9 -11 20 -20.5t23 -17.5q-40 -29 -72.5 -67.5t-58.5 -76.5q-8 13 -17.5 23.5t-19.5 18.5q40 31 69.5 64.5t55.5 75.5z" />
<glyph unicode="&#x15b;" horiz-adv-x="353" d="M318 490l-24 4q-10 1 -20 1q-7 0 -13.5 -0.5t-12.5 -1.5q16 36 16 74q0 54 -21 75t-63 21q-86 0 -86 -107q0 -22 3.5 -43t16 -43.5t36.5 -47.5t65 -56q36 -28 59 -52.5t35.5 -49t17 -50t4.5 -54.5q0 -93 -39.5 -133.5t-113.5 -40.5q-79 0 -114.5 48.5t-35.5 151.5v13 q0 6 1 14q5 -1 10 -1h10q28 0 51 4q-12 -54 -12 -89q0 -24 8 -40t20.5 -25.5t28.5 -13.5t32 -4q18 0 35.5 7t31.5 21t22.5 35.5t8.5 51.5q0 22 -4.5 43t-17.5 43t-36.5 46t-60.5 53q-35 27 -58 54t-36.5 54t-19 55.5t-5.5 58.5q0 46 11.5 76t30 47.5t43 24.5t51.5 7 q47 0 76 -12.5t44.5 -37t21 -60.5t5.5 -82v-19q0 -9 -2 -20zM222 940q9 -11 20 -20.5t23 -17.5q-40 -29 -72.5 -67.5t-58.5 -76.5q-8 13 -17.5 23.5t-19.5 18.5q40 31 69.5 64.5t55.5 75.5z" />
<glyph unicode="&#x162;" horiz-adv-x="302" d="M293 713q-1 -9 -1.5 -17t-0.5 -16q0 -9 0.5 -17t1.5 -16q-47 8 -110 9l-2 -198q-1 -97 -1 -194q0 -211 10 -264q-5 2 -10 2h-9h-23q-15 0 -29 -2q6 37 9.5 150.5t3.5 291.5q0 76 -2 127.5t-4 84.5q-68 -3 -110 -9q1 11 1.5 21t0.5 21v13q0 6 -1 13q69 -6 138 -6t138 6z M133 -174q23 11 26 34q-8 -4 -19 -4q-18 0 -30.5 13.5t-12.5 33.5q0 32 15.5 49t40.5 17q26 0 38.5 -18.5t12.5 -43.5q0 -29 -9.5 -54.5t-31.5 -52.5z" />
<glyph unicode="&#x163;" horiz-adv-x="302" d="M293 713q-1 -9 -1.5 -17t-0.5 -16q0 -9 0.5 -17t1.5 -16q-47 8 -110 9l-2 -198q-1 -97 -1 -194q0 -211 10 -264q-5 2 -10 2h-9h-23q-15 0 -29 -2q6 37 9.5 150.5t3.5 291.5q0 76 -2 127.5t-4 84.5q-68 -3 -110 -9q1 11 1.5 21t0.5 21v13q0 6 -1 13q69 -6 138 -6t138 6z M133 -174q23 11 26 34q-8 -4 -19 -4q-18 0 -30.5 13.5t-12.5 33.5q0 32 15.5 49t40.5 17q26 0 38.5 -18.5t12.5 -43.5q0 -29 -9.5 -54.5t-31.5 -52.5z" />
<glyph unicode="&#x178;" horiz-adv-x="408" d="M338 724q30 -23 63 -36q-54 -75 -96.5 -164.5t-68.5 -189.5v-188q0 -71 6 -146q-8 0 -16 0.5t-16 0.5q-20 0 -39 -3q3 31 5 59t3.5 57.5t2 62.5t0.5 74v77l-38 84l-43 94l-47 96l-47 89q34 10 66 30l63 -157q31 -78 66 -175q32 102 68 183zM303 899q20 0 40 -13.5 t20 -39.5q0 -25 -18 -44.5t-47 -19.5q-14 0 -24.5 5.5t-17.5 14t-10.5 18.5t-3.5 18q0 23 16.5 42t44.5 19zM163 850q0 -7 -3 -19t-10.5 -23t-20 -19.5t-30.5 -8.5q-24 0 -39.5 15t-15.5 38q0 25 15.5 45.5t42.5 20.5q7 0 17 -1.5t20 -7t17 -15t7 -25.5z" />
<glyph unicode="&#x179;" horiz-adv-x="338" d="M313 708q0 -12 0.5 -22t2.5 -19q-7 -16 -20 -49l-28 -76l-34 -94l-38 -102l-36 -102l-34 -89l-26 -69q-11 -28 -16 -38q66 5 117 7.5t103 4.5q-4 -17 -4 -45q0 -5 0.5 -11t0.5 -11q-69 6 -135 6q-34 0 -68 -1.5t-68 -3.5q0 11 -2.5 22t-4.5 19q8 17 25 63l40 109l48 131 l48 133l42 112q19 49 29 70q-20 3 -66 3q-45 0 -80 -1t-77 -6q3 18 3 36q0 13 -3 30q16 -2 49.5 -5.5t90.5 -3.5q54 0 88.5 0.5t52.5 1.5zM240 940q9 -11 20 -20.5t23 -17.5q-40 -29 -72.5 -67.5t-58.5 -76.5q-8 13 -17.5 23.5t-19.5 18.5q40 31 69.5 64.5t55.5 75.5z" />
<glyph unicode="&#x17a;" horiz-adv-x="338" d="M313 708q0 -12 0.5 -22t2.5 -19q-7 -16 -20 -49l-28 -76l-34 -94l-38 -102l-36 -102l-34 -89l-26 -69q-11 -28 -16 -38q66 5 117 7.5t103 4.5q-4 -17 -4 -45q0 -5 0.5 -11t0.5 -11q-69 6 -135 6q-34 0 -68 -1.5t-68 -3.5q0 11 -2.5 22t-4.5 19q8 17 25 63l40 109l48 131 l48 133l42 112q19 49 29 70q-20 3 -66 3q-45 0 -80 -1t-77 -6q3 18 3 36q0 13 -3 30q16 -2 49.5 -5.5t90.5 -3.5q54 0 88.5 0.5t52.5 1.5zM240 940q9 -11 20 -20.5t23 -17.5q-40 -29 -72.5 -67.5t-58.5 -76.5q-8 13 -17.5 23.5t-19.5 18.5q40 31 69.5 64.5t55.5 75.5z" />
<glyph unicode="&#x17b;" horiz-adv-x="338" d="M313 708q0 -12 0.5 -22t2.5 -19q-7 -16 -20 -49l-28 -76l-34 -94l-38 -102l-36 -102l-34 -89l-26 -69q-11 -28 -16 -38q66 5 117 7.5t103 4.5q-4 -17 -4 -45q0 -5 0.5 -11t0.5 -11q-69 6 -135 6q-34 0 -68 -1.5t-68 -3.5q0 11 -2.5 22t-4.5 19q8 17 25 63l40 109l48 131 l48 133l42 112q19 49 29 70q-20 3 -66 3q-45 0 -80 -1t-77 -6q3 18 3 36q0 13 -3 30q16 -2 49.5 -5.5t90.5 -3.5q54 0 88.5 0.5t52.5 1.5zM178 783q-16 0 -32 4.5t-29 13.5t-21 23.5t-8 35.5q0 14 7.5 26t19 20.5t24.5 13.5t25 5q22 0 38 -7.5t26.5 -18.5t16 -24t5.5 -23 q0 -24 -17.5 -46.5t-54.5 -22.5z" />
<glyph unicode="&#x17c;" horiz-adv-x="338" d="M313 708q0 -12 0.5 -22t2.5 -19q-7 -16 -20 -49l-28 -76l-34 -94l-38 -102l-36 -102l-34 -89l-26 -69q-11 -28 -16 -38q66 5 117 7.5t103 4.5q-4 -17 -4 -45q0 -5 0.5 -11t0.5 -11q-69 6 -135 6q-34 0 -68 -1.5t-68 -3.5q0 11 -2.5 22t-4.5 19q8 17 25 63l40 109l48 131 l48 133l42 112q19 49 29 70q-20 3 -66 3q-45 0 -80 -1t-77 -6q3 18 3 36q0 13 -3 30q16 -2 49.5 -5.5t90.5 -3.5q54 0 88.5 0.5t52.5 1.5zM178 783q-16 0 -32 4.5t-29 13.5t-21 23.5t-8 35.5q0 14 7.5 26t19 20.5t24.5 13.5t25 5q22 0 38 -7.5t26.5 -18.5t16 -24t5.5 -23 q0 -24 -17.5 -46.5t-54.5 -22.5z" />
<glyph unicode="&#x218;" horiz-adv-x="353" d="M318 490l-24 4q-10 1 -20 1q-7 0 -13.5 -0.5t-12.5 -1.5q16 36 16 74q0 54 -21 75t-63 21q-86 0 -86 -107q0 -22 3.5 -43t16 -43.5t36.5 -47.5t65 -56q36 -28 59 -52.5t35.5 -49t17 -50t4.5 -54.5q0 -93 -39.5 -133.5t-113.5 -40.5q-79 0 -114.5 48.5t-35.5 151.5v13 q0 6 1 14q5 -1 10 -1h10q28 0 51 4q-12 -54 -12 -89q0 -24 8 -40t20.5 -25.5t28.5 -13.5t32 -4q18 0 35.5 7t31.5 21t22.5 35.5t8.5 51.5q0 22 -4.5 43t-17.5 43t-36.5 46t-60.5 53q-35 27 -58 54t-36.5 54t-19 55.5t-5.5 58.5q0 46 11.5 76t30 47.5t43 24.5t51.5 7 q47 0 76 -12.5t44.5 -37t21 -60.5t5.5 -82v-19q0 -9 -2 -20zM165 -174q23 11 26 34q-8 -4 -19 -4q-18 0 -30.5 13.5t-12.5 33.5q0 32 15.5 49t40.5 17q26 0 38.5 -18.5t12.5 -43.5q0 -29 -9.5 -54.5t-31.5 -52.5z" />
<glyph unicode="&#x219;" horiz-adv-x="353" d="M318 490l-24 4q-10 1 -20 1q-7 0 -13.5 -0.5t-12.5 -1.5q16 36 16 74q0 54 -21 75t-63 21q-86 0 -86 -107q0 -22 3.5 -43t16 -43.5t36.5 -47.5t65 -56q36 -28 59 -52.5t35.5 -49t17 -50t4.5 -54.5q0 -93 -39.5 -133.5t-113.5 -40.5q-79 0 -114.5 48.5t-35.5 151.5v13 q0 6 1 14q5 -1 10 -1h10q28 0 51 4q-12 -54 -12 -89q0 -24 8 -40t20.5 -25.5t28.5 -13.5t32 -4q18 0 35.5 7t31.5 21t22.5 35.5t8.5 51.5q0 22 -4.5 43t-17.5 43t-36.5 46t-60.5 53q-35 27 -58 54t-36.5 54t-19 55.5t-5.5 58.5q0 46 11.5 76t30 47.5t43 24.5t51.5 7 q47 0 76 -12.5t44.5 -37t21 -60.5t5.5 -82v-19q0 -9 -2 -20zM165 -174q23 11 26 34q-8 -4 -19 -4q-18 0 -30.5 13.5t-12.5 33.5q0 32 15.5 49t40.5 17q26 0 38.5 -18.5t12.5 -43.5q0 -29 -9.5 -54.5t-31.5 -52.5z" />
<glyph unicode="&#x2c6;" horiz-adv-x="406" d="M318 825q-13 -9 -25 -20.5t-23 -24.5q-17 30 -36.5 53.5t-39.5 55.5q-19 -30 -36.5 -53.5t-34.5 -51.5q-22 29 -46 44q32 26 58 56.5t56 75.5q35 -45 66 -78.5t61 -56.5z" />
<glyph unicode="&#x2c7;" horiz-adv-x="302" d="M224 954q11 -13 23 -23l23 -19q-32 -24 -58.5 -55.5t-56.5 -76.5q-35 45 -65.5 77.5t-60.5 58.5q16 11 28 22t20 22q17 -29 36.5 -53t39.5 -56q19 30 36.5 53.5t34.5 49.5z" />
<glyph unicode="&#x2d8;" horiz-adv-x="295" d="M228 941q24 -19 56 -25q-13 -63 -45.5 -98.5t-89.5 -35.5t-89 34t-46 106q27 4 59 18q5 -38 24 -66t53 -28q36 0 52.5 26.5t25.5 68.5z" />
<glyph unicode="&#x2d9;" horiz-adv-x="226" d="M122 783q-16 0 -32 4.5t-29 13.5t-21 23.5t-8 35.5q0 14 7.5 26t19 20.5t24.5 13.5t25 5q22 0 38 -7.5t26.5 -18.5t16 -24t5.5 -23q0 -24 -17.5 -46.5t-54.5 -22.5z" />
<glyph unicode="&#x2da;" horiz-adv-x="275" d="M201 859q0 23 -16 35t-40 12q-29 0 -46 -15t-17 -38q0 -19 12.5 -35.5t38.5 -16.5q32 0 50 18t18 40zM244 881q0 -25 -10 -47t-27 -38t-39.5 -25.5t-46.5 -9.5q-23 0 -39.5 7.5t-27.5 19t-16.5 24.5t-5.5 25q0 23 10.5 44t28 36.5t39 24.5t43.5 9q43 0 67 -18t24 -52z " />
<glyph unicode="&#x2db;" horiz-adv-x="171" d="M154 0q-45 -23 -63.5 -47.5t-18.5 -40.5q0 -20 11.5 -28t26.5 -8q9 0 20.5 3t23.5 10q-2 -10 -3 -21t-1 -22v-12q0 -5 1 -10q-28 -7 -52 -7q-38 0 -61.5 17t-23.5 50q0 31 24 62t75 54h41z" />
<glyph unicode="&#x2dc;" horiz-adv-x="423" d="M320 926q14 -5 29.5 -6.5t32.5 -1.5q-4 -20 -11.5 -43t-19 -42.5t-28.5 -32t-40 -12.5q-28 0 -47.5 13.5t-37.5 47.5q-10 18 -22.5 27t-24.5 9q-27 0 -39.5 -19t-12.5 -65q-14 3 -27.5 5t-28.5 2q10 31 19 53.5t20 37.5t25.5 22t36.5 7q33 0 52.5 -16t41.5 -48 q12 -18 23 -25.5t21 -7.5q16 0 29 17.5t13 44.5q0 18 -4 33z" />
<glyph unicode="&#x2dd;" horiz-adv-x="393" d="M160 996q22 -22 45 -35q-40 -36 -70 -82l-62 -91q-10 10 -20 18.5t-24 16.5q43 42 72 83.5t59 89.5zM324 993q19 -28 41 -44q-42 -38 -74 -83.5t-56 -96.5q-13 9 -26.5 15.5t-25.5 11.5q42 45 75 92.5t66 104.5z" />
<glyph unicode="&#x326;" horiz-adv-x="241" d="M103 -174q23 11 26 34q-8 -4 -19 -4q-18 0 -30.5 13.5t-12.5 33.5q0 32 15.5 49t40.5 17q26 0 38.5 -18.5t12.5 -43.5q0 -29 -9.5 -54.5t-31.5 -52.5z" />
<glyph unicode="&#x2000;" horiz-adv-x="498" />
<glyph unicode="&#x2001;" horiz-adv-x="996" />
<glyph unicode="&#x2002;" horiz-adv-x="498" />
<glyph unicode="&#x2003;" horiz-adv-x="996" />
<glyph unicode="&#x2004;" horiz-adv-x="332" />
<glyph unicode="&#x2005;" horiz-adv-x="249" />
<glyph unicode="&#x2006;" horiz-adv-x="166" />
<glyph unicode="&#x2007;" horiz-adv-x="166" />
<glyph unicode="&#x2008;" horiz-adv-x="124" />
<glyph unicode="&#x2009;" horiz-adv-x="199" />
<glyph unicode="&#x200a;" horiz-adv-x="55" />
<glyph unicode="&#x2010;" horiz-adv-x="346" d="M288 361q-2 -15 -3 -31.5t-1 -36.5q-59 9 -115 9q-27 0 -56 -1.5t-58 -3.5q3 31 3 69q29 -5 57.5 -7t57.5 -2q28 0 57 1t58 3z" />
<glyph unicode="&#x2011;" horiz-adv-x="346" d="M288 361q-2 -15 -3 -31.5t-1 -36.5q-59 9 -115 9q-27 0 -56 -1.5t-58 -3.5q3 31 3 69q29 -5 57.5 -7t57.5 -2q28 0 57 1t58 3z" />
<glyph unicode="&#x2013;" horiz-adv-x="403" d="M372 361q-4 -17 -4 -45v-11q0 -6 1 -12q-59 9 -169 9q-57 0 -98.5 -1.5t-70.5 -3.5q2 12 3 24t1 25q0 5 -0.5 10t-0.5 10q51 -9 142 -9q66 0 114 1z" />
<glyph unicode="&#x2014;" horiz-adv-x="586" d="M559 361q-3 -19 -3.5 -35t-0.5 -33q-57 9 -262 9q-106 0 -169.5 -1.5t-92.5 -3.5q6 19 6 41q0 14 -3 28q51 -9 213 -9q127 0 203.5 1.5t108.5 2.5z" />
<glyph unicode="&#x2018;" horiz-adv-x="132" d="M96 752q-12 -8 -25 -26t-15 -30q7 4 20 4q20 0 30 -15.5t10 -37.5q0 -23 -16.5 -39t-38.5 -16q-27 0 -37.5 19t-10.5 44q0 34 15.5 65.5t41.5 56.5z" />
<glyph unicode="&#x2019;" horiz-adv-x="131" d="M37 598q12 8 21.5 26t13.5 32q-8 -5 -19 -5q-21 0 -30.5 14.5t-9.5 37.5q0 29 16 43t38 14q26 0 37 -16.5t11 -39.5q0 -27 -12.5 -64t-40.5 -66z" />
<glyph unicode="&#x201a;" horiz-adv-x="131" d="M37 -61q12 8 21.5 26t13.5 32q-8 -5 -19 -5q-21 0 -30.5 14.5t-9.5 37.5q0 29 16 43t38 14q26 0 37 -16.5t11 -39.5q0 -27 -12.5 -64t-40.5 -66z" />
<glyph unicode="&#x201c;" horiz-adv-x="265" d="M225 753q-12 -8 -21.5 -26t-13.5 -32q8 5 19 5q21 0 30.5 -14.5t9.5 -37.5q0 -29 -16 -43t-38 -14q-26 0 -37 16.5t-11 39.5q0 27 12.5 64t40.5 66zM96 752q-12 -8 -25 -26t-15 -30q7 4 20 4q20 0 30 -15.5t10 -37.5q0 -23 -16.5 -39t-38.5 -16q-27 0 -37.5 19t-10.5 44 q0 34 15.5 65.5t41.5 56.5z" />
<glyph unicode="&#x201d;" horiz-adv-x="265" d="M37 598q12 8 21.5 26t13.5 32q-8 -5 -19 -5q-21 0 -30.5 14.5t-9.5 37.5q0 29 16 43t38 14q26 0 37 -16.5t11 -39.5q0 -27 -12.5 -64t-40.5 -66zM166 599q12 8 25 26t15 30q-7 -4 -20 -4q-20 0 -30 15.5t-10 37.5q0 23 16.5 39t38.5 16q27 0 37.5 -19t10.5 -44 q0 -34 -15.5 -65.5t-41.5 -56.5z" />
<glyph unicode="&#x201e;" horiz-adv-x="265" d="M37 -61q12 8 21.5 26t13.5 32q-8 -5 -19 -5q-21 0 -30.5 14.5t-9.5 37.5q0 29 16 43t38 14q26 0 37 -16.5t11 -39.5q0 -27 -12.5 -64t-40.5 -66zM166 -60q12 8 25 26t15 30q-7 -4 -20 -4q-20 0 -30 15.5t-10 37.5q0 23 16.5 39t38.5 16q27 0 37.5 -19t10.5 -44 q0 -34 -15.5 -65.5t-41.5 -56.5z" />
<glyph unicode="&#x2020;" horiz-adv-x="349" d="M152 531q-8 0 -15 0.5t-15 0.5q-26 0 -53.5 -1.5t-55.5 -3.5l4 29q2 15 2 35q66 -7 131 -9l-6 143q6 -1 11.5 -1.5t11.5 -0.5q25 0 49 6l-9 -147q32 0 64 1.5t65 3.5q-2 -12 -3.5 -24t-1.5 -24v-9q0 -3 1 -8q-65 8 -127 9q-7 -130 -12 -262.5t-6 -267.5q-5 2 -9 2h-10 h-13q3 99 3 201q0 165 -6 327z" />
<glyph unicode="&#x2021;" horiz-adv-x="398" d="M220 531q-5 -58 -7.5 -115t-2.5 -117q0 -58 3 -116q35 0 70.5 1t71.5 3q-4 -12 -5 -29t-1 -35q-68 8 -133 9q1 -38 3 -73t5 -70q-17 0 -34 -0.5t-38 -3.5q7 43 8.5 77.5t1.5 69.5l-64 -2q-32 -1 -66 -3q5 25 5 42v11q0 6 -1 12q66 -9 131 -9q5 45 7.5 91t2.5 94 q0 42 -1 81.5t-3 81.5q-35 0 -72.5 -1t-68.5 -3q3 11 5 23t2 24q0 5 -0.5 8.5t-0.5 8.5q66 -8 132 -9q0 38 -1 73.5t-6 69.5q6 -1 11.5 -1.5t11.5 -0.5q25 0 49 6q-5 -42 -7 -77l-4 -70q32 0 64.5 1.5t66.5 3.5q-2 -16 -3 -31.5t-1 -33.5q-34 5 -66.5 6.5t-64.5 2.5z" />
<glyph unicode="&#x2022;" horiz-adv-x="314" d="M155 226q-24 0 -45 9t-36.5 24.5t-24.5 37t-9 47.5q0 28 11.5 49.5t30 36t42 22t46.5 7.5q49 0 77 -31.5t28 -88.5q0 -23 -7.5 -43t-22.5 -36t-37.5 -25t-52.5 -9z" />
<glyph unicode="&#x2026;" horiz-adv-x="920" d="M90 -15q-26 0 -44 18t-18 46q0 30 22.5 46t47.5 16q26 0 41.5 -17.5t15.5 -47.5q0 -24 -16 -42.5t-49 -18.5zM458 -15q-26 0 -44 18t-18 46q0 30 22.5 46t47.5 16q26 0 41.5 -17.5t15.5 -47.5q0 -24 -16 -42.5t-49 -18.5zM826 -15q-26 0 -44 18t-18 46q0 30 22.5 46 t47.5 16q26 0 41.5 -17.5t15.5 -47.5q0 -24 -16 -42.5t-49 -18.5z" />
<glyph unicode="&#x202f;" horiz-adv-x="199" />
<glyph unicode="&#x2039;" horiz-adv-x="294" d="M200 561q14 -19 27 -30.5t27 -19.5q-50 -38 -91 -85l-80 -91q42 -39 89.5 -77t98.5 -64q-31 -23 -47 -60q-21 24 -46 49t-51 48t-51 42.5t-46 32.5q1 7 1 14v14q0 9 -2 13q20 16 44.5 40.5t48.5 53.5t45 60t33 60z" />
<glyph unicode="&#x203a;" horiz-adv-x="294" d="M100 134q-14 19 -27 30.5t-27 19.5q50 38 91 85l80 91q-42 39 -89.5 77t-98.5 64q31 23 47 60q21 -24 46 -49t51 -48t51 -42.5t46 -32.5q-1 -7 -1 -14v-14q0 -9 2 -13q-20 -17 -44.5 -41.5t-48.5 -53t-45 -59.5t-33 -60z" />
<glyph unicode="&#x2044;" horiz-adv-x="279" d="M153 378l199 236l116 136q8 -7 15.5 -12.5t15.5 -10.5q-43 -38 -123 -128l-200 -233l-202 -240q-77 -93 -113 -141l-32 25q45 42 125 133z" />
<glyph unicode="&#x205f;" horiz-adv-x="249" />
<glyph unicode="&#x2081;" horiz-adv-x="153" d="M36 313q-1 8 -1 15.5t-2 15.5q13 0 26.5 0.5t32.5 2.5q-2 -55 -4 -117.5t-2 -134.5q0 -27 0.5 -47t1.5 -33q11 0 20.5 0.5t17.5 1.5q-1 -2 -1 -8q0 -5 0.5 -10t1.5 -10q-2 1 -5 1h-7h-14q-21 0 -43.5 -1t-34.5 -3v10v9q0 4 -2 9q3 -1 17 -1h10q5 0 11 1q0 9 0.5 32 t1 53.5t1.5 64.5v65q1 31 1.5 54.5t0.5 33.5q-7 -1 -14 -1.5t-14 -2.5z" />
<glyph unicode="&#x2082;" horiz-adv-x="228" d="M71 240q-3 1 -11 1q-13 0 -25 -3q0 35 7 57.5t18.5 35t26 17t29.5 4.5q35 0 52.5 -24t17.5 -59q0 -38 -18.5 -70.5t-48.5 -55.5q-15 -12 -26.5 -22.5t-19 -23.5t-11.5 -31.5t-4 -46.5q17 -2 32.5 -3t32.5 -1t35.5 1.5t37.5 6.5q-1 -3 -1 -7v-6q0 -13 3 -25q-17 3 -41 4 t-57 1q-23 0 -39.5 -1t-28.5 -3q-1 9 -1 17v16q0 36 6 59.5t16 39.5t23 27l27 22q34 26 44 50.5t10 56.5q0 23 -10 37.5t-32 14.5q-18 0 -32.5 -12.5t-14.5 -43.5q0 -12 3 -30z" />
<glyph unicode="&#x2083;" horiz-adv-x="205" d="M67 287q-17 10 -30 15q9 21 26 34.5t44 13.5q33 0 50 -24.5t17 -59.5q0 -12 -2 -24.5t-7.5 -24.5t-14.5 -22t-24 -16q18 -5 28 -14.5t15 -22t6 -26t1 -26.5q0 -21 -4.5 -40t-14 -34t-24 -23.5t-35.5 -8.5q-11 0 -23.5 3t-23.5 11.5t-18.5 23.5t-7.5 38q22 0 35 4 q-1 -5 -1.5 -8.5t-0.5 -7.5q0 -18 10 -29.5t30 -11.5t35.5 17.5t15.5 62.5q0 32 -15 55t-46 23q-2 0 -3.5 -0.5t-3.5 -0.5q3 13 3 30q34 0 48 22.5t14 51.5q0 54 -40 54q-14 0 -25 -6t-14 -29z" />
<glyph unicode="&#x2084;" horiz-adv-x="233" d="M143 344q3 -1 16 -1q5 0 10.5 0.5t10.5 1.5q-5 -48 -6.5 -98.5t-2.5 -101.5q24 0 39 3q-1 -3 -1 -12q0 -12 3 -21q-8 1 -16.5 1.5t-24.5 0.5q0 -15 -0.5 -29t-0.5 -28q0 -20 0.5 -40t1.5 -40q-3 1 -14 1q-12 0 -15 -1q2 21 2 41v40v55q-31 -2 -58.5 -2t-56.5 -3 q-6 21 -16 33q27 15 45.5 46.5t18.5 62.5q0 24 -14 43q17 3 32 13q10 -23 10 -50q0 -30 -11.5 -62t-43.5 -54q29 0 50 0.5t45 0.5l2 52q1 25 1 51q0 50 -6 97z" />
<glyph unicode="&#x20ac;" horiz-adv-x="410" d="M387 632q-12 -17 -23 -37l-22 -42q-1 22 -8.5 42t-20.5 35t-29.5 24t-35.5 9q-30 0 -53.5 -20.5t-40.5 -52.5t-26.5 -72t-11.5 -80q45 0 87 3t90 8q-12 -15 -21 -31.5t-13 -34.5q-50 1 -82 1.5t-64 0.5v-60q11 -1 21 -1.5t20 -0.5q23 0 44.5 2.5t40.5 8.5 q-19 -26 -28 -67q-12 4 -41 4q-14 0 -27.5 -1t-27.5 -3q0 -22 7.5 -59t23 -73t38.5 -62t55 -26q42 0 67.5 30.5t31.5 96.5q21 -18 46 -29q-5 -30 -16.5 -58.5t-28.5 -50.5t-40 -35t-51 -13q-50 0 -83.5 28t-55 69t-32.5 89t-15 87q-13 -1 -25 -1.5t-24 -2.5q0 17 -1 32.5 t-5 32.5h52v60l-52 -3q6 27 6 69q25 -5 48 -6q1 57 16 107.5t40.5 88t61 59.5t77.5 22q54 0 85.5 -24.5t45.5 -62.5z" />
<glyph unicode="&#x2122;" horiz-adv-x="585" d="M204 716q-2 -4 -2 -11v-8v-9v-6q0 -4 2 -8q-17 2 -32.5 3.5t-30.5 1.5q0 -45 -2 -89t-2 -89q0 -32 2 -65t7 -67q-7 0 -13 0.5t-13 0.5t-14 -0.5t-14 -0.5q2 4 3.5 23.5t3 48.5t2 63.5t0.5 67.5t-0.5 61.5t-2.5 44.5q-16 0 -33 -1t-31 -4q3 12 3 26v8q0 4 -1 9 q45 -3 83 -3t85 3zM488 713q1 -27 6 -72.5t12 -96t15.5 -98t17.5 -77.5q-14 3 -28 3t-29 -3q0 61 -9 121t-16 129l-29 -125q-13 -61 -29 -125q-5 1 -11 1.5t-12 0.5q-5 0 -10 -0.5t-10 -1.5q-6 31 -12 55l-10 50q-6 26 -10.5 56t-8.5 72q-6 -37 -13 -74l-14 -69 q-6 -32 -11.5 -56.5t-8.5 -35.5q-12 4 -29 4q-5 0 -10 -0.5t-10 -1.5q6 15 13.5 43t15.5 62t15.5 70.5t13.5 70t9.5 59.5t3.5 40q11 -4 26 -4q16 0 27 4q3 -57 15.5 -122t19.5 -131q12 67 31.5 131t25.5 121q8 -1 15.5 -1.5t14.5 -0.5q6 0 12 0.5t11 1.5z" />
<glyph unicode="&#x2212;" horiz-adv-x="450" d="M160 328q-48 0 -82 -2.5t-54 -4.5q2 11 3.5 22t1.5 23q0 3 -0.5 6.5t-0.5 7.5q17 -5 43.5 -7.5t68.5 -2.5h160q82 0 126 10q-2 -10 -3 -19.5t-1 -18.5q0 -7 0.5 -13.5t1.5 -12.5q-44 12 -109 12h-155z" />
<glyph unicode="&#xf8ff;" horiz-adv-x="200" />
<glyph unicode="&#xfb01;" horiz-adv-x="478" d="M370 707q6 -2 12 -2h11h16h17h11q6 0 12 2q-5 -48 -7.5 -145t-2.5 -256q0 -222 12 -306q-11 1 -21 1.5t-21 0.5q-10 0 -20 -0.5t-21 -1.5q15 93 15 357q0 137 -3 221t-10 129zM315 709q1 -18 4 -34t6 -30q-29 5 -58.5 6t-60.5 1q-27 0 -54.5 -0.5t-56.5 -0.5 q-1 -26 -1.5 -50t-0.5 -47q0 -32 0.5 -64t2.5 -67q14 -1 32 -1.5t53 -0.5q17 0 42.5 2t50.5 6q-2 -11 -3 -23t-1 -23v-11q0 -6 1 -12q-26 4 -45 5t-36 1q-22 0 -45 -0.5t-46 -2.5q-2 -34 -3 -85.5t-1 -121.5q0 -103 6 -158h-72q4 17 7 40.5t4.5 72t2.5 130.5t1 217 q0 70 -0.5 112t-2 67.5t-4.5 40.5t-7 31h285z" />
<glyph unicode="&#xfb02;" horiz-adv-x="613" d="M391 708q18 -3 37 -3q17 0 37 3q-1 -5 -3 -35t-4.5 -75t-5 -101.5t-5.5 -115l-6 -115.5l-4 -102q-2 -45 -3.5 -75t-1.5 -35h43q33 0 68 2.5t64 8.5q-4 -15 -4 -34q0 -22 4 -37q-41 6 -101 6h-138q1 5 3.5 35t5.5 77l6 106q4 60 6.5 124t4.5 128t2 120q0 45 -1.5 74 t-3.5 44zM315 709q1 -18 4 -34t6 -30q-29 5 -58.5 6t-60.5 1q-27 0 -54.5 -0.5t-56.5 -0.5q-1 -26 -1.5 -50t-0.5 -47q0 -32 0.5 -64t2.5 -67q14 -1 32 -1.5t53 -0.5q17 0 42.5 2t50.5 6q-2 -11 -3 -23t-1 -23v-11q0 -6 1 -12q-26 4 -45 5t-36 1q-22 0 -45 -0.5t-46 -2.5 q-2 -34 -3 -85.5t-1 -121.5q0 -103 6 -158h-72q4 17 7 40.5t4.5 72t2.5 130.5t1 217q0 70 -0.5 112t-2 67.5t-4.5 40.5t-7 31h285z" />
</font>
</defs>
</svg>
